Index
# A B C D E F G H I J K L M N O P Q R S T U V W Y Z
Tags
Language
Tags

Featured TV Shows


Doctor Who S07E08

Posted By: Tavaz
1080p (FullHD) / BDRip IMDb
Doctor Who S07E08

Doctor Who S07E08
BDRip | MKV | 1920x1080 | English | H264 @ 9798 kbps | DTS @ 1509 kbps | 41 min 28 s | 3.28 GiB
Genre: Drama


The Doctor is a Time Lord: a 900 year old alien with 2 hearts, part of a gifted civilization who mastered time travel. The Doctor saves planets for a living—more of a hobby actually, and the Doctor's very, very good at it.

ad39638131375142660e247ca977cf3e.mkv (3.3 GB)



General
Complete name : ./ad39638131375142660e247ca977cf3e.mkv
Format : Matroska
Format version : Version 2
File size : 3.28 GiB
Duration : 41 min 28 s
Overall bit rate : 11.3 Mb/s
Writing application : x264.exe
Writing library : mkv2rls v1.4 (date: 2011 mar 29)

Video
ID : 1
Format : AVC
Format/Info : Advanced Video Codec
Format profile : High@L4.1
Format settings : CABAC / 4 Ref Frames
Format settings, CABAC : Yes
Format settings, RefFrames : 4 frames
Codec ID : V_MPEG4/ISO/AVC
Duration : 41 min 28 s
Bit rate : 9 798 kb/s
Width : 1 920 pixels
Height : 1 080 pixels
Display aspect ratio : 16:9
Frame rate mode : Constant
Frame rate : 25.000 FPS
Color space : YUV
Chroma subsampling : 4:2:0
Bit depth : 8 bits
Scan type : Progressive
Bits/(Pixel*Frame) : 0.189
Stream size : 2.77 GiB (85%)
Writing library : x264 core 133 r2334 a3ac64b
Encoding settings : cabac=1 / ref=4 / deblock=1:0:0 / analyse=0x3:0x113 / me=umh / subme=8 / psy=1 / psy_rd=1.00:0.00 / mixed_ref=1 / me_range=16 / chroma_me=1 / trellis=1 / 8x8dct=1 / cqm=0 / deadzone=21,11 / fast_pskip=1 / chroma_qp_offset=-2 / threads=12 / lookahead_threads=2 / sliced_threads=0 / nr=0 / decimate=1 / interlaced=0 / bluray_compat=0 / constrained_intra=0 / bframes=3 / b_pyramid=2 / b_adapt=2 / b_bias=0 / direct=3 / weightb=1 / open_gop=0 / weightp=2 / keyint=250 / keyint_min=25 / scenecut=40 / intra_refresh=0 / rc_lookahead=50 / rc=2pass / mbtree=1 / bitrate=9798 / ratetol=1.0 / qcomp=0.60 / qpmin=0 / qpmax=69 / qpstep=4 / cplxblur=20.0 / qblur=0.5 / ip_ratio=1.40 / aq=1:1.00
Language : English
Default : Yes
Forced : No

Audio
ID : 2
Format : DTS
Format/Info : Digital Theater Systems
Mode : 16
Format settings, Endianness : Big
Codec ID : A_DTS
Duration : 41 min 28 s
Bit rate mode : Constant
Bit rate : 1 509 kb/s
Channel(s) : 6 channels
Channel positions : Front: L C R, Side: L R, LFE
Sampling rate : 48.0 kHz
Frame rate : 93.750 FPS (512 SPF)
Bit depth : 24 bits
Compression mode : Lossy
Stream size : 448 MiB (13%)
Language : English
Default : Yes
Forced : No

Menu
00:00:00.000 : en:00:00:00.000
00:03:20.000 : en:00:03:20.000
00:07:32.480 : en:00:07:32.480
00:09:53.320 : en:00:09:53.320
00:14:25.280 : en:00:14:25.280
00:18:33.240 : en:00:18:33.240
00:21:47.400 : en:00:21:47.400
00:25:38.640 : en:00:25:38.640
00:29:06.680 : en:00:29:06.680
00:36:07.000 : en:00:36:07.000
00:38:34.320 : en:00:38:34.320
00:40:54.120 : en:00:40:54.120





Doctor Who S07E08


Doctor Who S07E08


Doctor Who S07E08


Doctor Who S07E08


Doctor Who S07E08

All episodes