Index
# A B C D E F G H I J K L M N O P Q R S T U V W Y Z
Tags
Language
Tags

Featured TV Shows


Doctor Who S07E11

Posted By: Tavaz
1080p (FullHD) / BDRip IMDb
Doctor Who S07E11

Doctor Who S07E11
BDRip | MKV | 1920x1080 | English | H264 @ 8972 kbps | DTS @ 1509 kbps | 44 min 44 s | 3.28 GiB
Genre: Drama


The Doctor is a Time Lord: a 900 year old alien with 2 hearts, part of a gifted civilization who mastered time travel. The Doctor saves planets for a living—more of a hobby actually, and the Doctor's very, very good at it.

eca957b5638a3c9c475a7eb02ed63011.mkv (3.3 GB)



General
Complete name : ./eca957b5638a3c9c475a7eb02ed63011.mkv
Format : Matroska
Format version : Version 2
File size : 3.28 GiB
Duration : 44 min 44 s
Overall bit rate : 10.5 Mb/s
Writing application : x264.exe
Writing library : mkv2rls v1.4 (date: 2011 mar 29)

Video
ID : 1
Format : AVC
Format/Info : Advanced Video Codec
Format profile : High@L4.1
Format settings : CABAC / 4 Ref Frames
Format settings, CABAC : Yes
Format settings, RefFrames : 4 frames
Codec ID : V_MPEG4/ISO/AVC
Duration : 44 min 44 s
Bit rate : 8 972 kb/s
Width : 1 920 pixels
Height : 1 080 pixels
Display aspect ratio : 16:9
Frame rate mode : Constant
Frame rate : 25.000 FPS
Color space : YUV
Chroma subsampling : 4:2:0
Bit depth : 8 bits
Scan type : Progressive
Bits/(Pixel*Frame) : 0.173
Stream size : 2.74 GiB (84%)
Writing library : x264 core 133 r2334 a3ac64b
Encoding settings : cabac=1 / ref=4 / deblock=1:0:0 / analyse=0x3:0x113 / me=umh / subme=8 / psy=1 / psy_rd=1.00:0.00 / mixed_ref=1 / me_range=16 / chroma_me=1 / trellis=1 / 8x8dct=1 / cqm=0 / deadzone=21,11 / fast_pskip=1 / chroma_qp_offset=-2 / threads=12 / lookahead_threads=2 / sliced_threads=0 / nr=0 / decimate=1 / interlaced=0 / bluray_compat=0 / constrained_intra=0 / bframes=3 / b_pyramid=2 / b_adapt=2 / b_bias=0 / direct=3 / weightb=1 / open_gop=0 / weightp=2 / keyint=250 / keyint_min=25 / scenecut=40 / intra_refresh=0 / rc_lookahead=50 / rc=2pass / mbtree=1 / bitrate=8972 / ratetol=1.0 / qcomp=0.60 / qpmin=0 / qpmax=69 / qpstep=4 / cplxblur=20.0 / qblur=0.5 / ip_ratio=1.40 / aq=1:1.00
Language : English
Default : Yes
Forced : No

Audio
ID : 2
Format : DTS
Format/Info : Digital Theater Systems
Mode : 16
Format settings, Endianness : Big
Codec ID : A_DTS
Duration : 44 min 44 s
Bit rate mode : Constant
Bit rate : 1 509 kb/s
Channel(s) : 6 channels
Channel positions : Front: L C R, Side: L R, LFE
Sampling rate : 48.0 kHz
Frame rate : 93.750 FPS (512 SPF)
Bit depth : 24 bits
Compression mode : Lossy
Stream size : 483 MiB (14%)
Language : English
Default : Yes
Forced : No

Menu
00:00:00.000 : en:00:00:00.000
00:03:21.160 : en:00:03:21.160
00:06:22.000 : en:00:06:22.000
00:11:13.920 : en:00:11:13.920
00:16:07.160 : en:00:16:07.160
00:21:43.000 : en:00:21:43.000
00:25:37.160 : en:00:25:37.160
00:31:30.520 : en:00:31:30.520
00:35:46.720 : en:00:35:46.720
00:38:50.000 : en:00:38:50.000
00:42:10.720 : en:00:42:10.720
00:44:10.560 : en:00:44:10.560





Doctor Who S07E11


Doctor Who S07E11


Doctor Who S07E11


Doctor Who S07E11


Doctor Who S07E11

All episodes