Index
# A B C D E F G H I J K L M N O P Q R S T U V W Y Z
Tags
Language
Tags

Featured TV Shows


Doctor Who S09E05

Posted By: Tavaz
720p (HD) / WEB-DL IMDb
Doctor Who S09E05

Doctor Who S09E05
WEB-DL | MKV | 1280x720 | English | H265 @ 569 kbps | AAC @ 72 kbps | 45 min 42 s | 210 MiB
Genre: Drama

The Doctor looks and seems human. He's handsome, witty, and could be mistaken for just another man in the street. But he is a Time Lord: a 900 year old alien with 2 hearts, part of a gifted civilization who mastered time travel. The Doctor saves planets for a living – more of a hobby actually, and he's very, very good at it. He's saved us from alien menaces and evil from before time began – but just who is he?

ba6ed5eef6edebabd829a62daec0273bc92b95ac.mkv (210.5 MB)



General
Unique ID : 234785575073856958732347051423282462969 (0xB0A20E9491CFDD70B6AF68F8403B80F9)
Complete name : ./ba6ed5eef6edebabd829a62daec0273bc92b95ac.mkv
Format : Matroska
Format version : Version 4 / Version 2
File size : 210 MiB
Duration : 45 min 42 s
Overall bit rate : 644 kb/s
Movie name : PSArips.com | Doctor.Who.2005.S09E05.The.Girl.Who.Died.720p.WEB-DL.2CH.x265.HEVC-PSA
Encoded date : UTC 2015-10-21 03:12:58
Writing application : mkvmerge v8.5.0 ('Vanishing Act') 64bit
Writing library : libebml v1.3.1 + libmatroska v1.4.2

Video
ID : 1
Format : HEVC
Format/Info : High Efficiency Video Coding
Format profile : Main@L3.1@Main
Codec ID : V_MPEGH/ISO/HEVC
Duration : 45 min 42 s
Bit rate : 570 kb/s
Width : 1 280 pixels
Height : 720 pixels
Display aspect ratio : 16:9
Frame rate mode : Constant
Frame rate : 25.000 FPS
Color space : YUV
Chroma subsampling : 4:2:0
Bit depth : 8 bits
Bits/(Pixel*Frame) : 0.025
Stream size : 186 MiB (89%)
Default : Yes
Forced : No
Color range : Limited
Color primaries : BT.709
Transfer characteristics : BT.709
Matrix coefficients : BT.709

Audio
ID : 2
Format : AAC
Format/Info : Advanced Audio Codec
Format profile : HE-AAC / LC
Format settings : NBC
Codec ID : A_AAC-5
Duration : 45 min 42 s
Bit rate : 72.0 kb/s
Channel(s) : 2 channels
Channel positions : Front: L R
Sampling rate : 48.0 kHz / 24.0 kHz
Frame rate : 23.438 FPS (1024 SPF)
Compression mode : Lossy
Delay relative to video : -105 ms
Stream size : 23.5 MiB (11%)
Title : Stereo
Language : English
Default : Yes
Forced : No

Text
ID : 3
Format : UTF-8
Codec ID : S_TEXT/UTF8
Codec ID/Info : UTF-8 Plain Text
Duration : 45 min 36 s
Bit rate : 73 b/s
Count of elements : 832
Stream size : 24.5 KiB (0%)
Default : Yes
Forced : No





Doctor Who S09E05


Doctor Who S09E05


Doctor Who S09E05


Doctor Who S09E05


Doctor Who S09E05

All episodes