Index
# A B C D E F G H I J K L M N O P Q R S T U V W Y Z
Tags
Language
Tags

Featured TV Shows


Doctor Who S09E06

Posted By: Tavaz
1080p (FullHD) / WEB-DL IMDb
Doctor Who S09E06

Doctor Who S09E06
WEB-DL | MKV | 1912x1072 | English | H264 @ 5193 kbps | AC-3 @ 384 kbps | 45 min 37 s | 1.78 GiB
Subtitles: English
Genre: Drama

The Doctor looks and seems human. He's handsome, witty, and could be mistaken for just another man in the street. But he is a Time Lord: a 900 year old alien with 2 hearts, part of a gifted civilization who mastered time travel. The Doctor saves planets for a living – more of a hobby actually, and he's very, very good at it. He's saved us from alien menaces and evil from before time began – but just who is he?

9174826f1740aa3aa717b5f88fca5ebf1ec48049.mkv (1.8 GB)
9174826f1740aa3aa717b5f88fca5ebf1ec48049.srt (64.0 KB)



General
Unique ID : 219572493338858412643660036012191578462 (0xA5301FBDB5F87D988A7248EE7150F95E)
Complete name : ./9174826f1740aa3aa717b5f88fca5ebf1ec48049.mkv
Format : Matroska
Format version : Version 4 / Version 2
File size : 1.78 GiB
Duration : 45 min 37 s
Overall bit rate : 5 580 kb/s
Encoded date : UTC 2015-10-25 00:06:46
Writing application : mkvmerge v8.5.0 ('Vanishing Act') 64bit
Writing library : libebml v1.3.1 + libmatroska v1.4.2
Cover : Yes
Attachments : small_cover.jpg / cover.jpg / cover_land.jpg / small_cover_land.jpg

Video
ID : 1
Format : AVC
Format/Info : Advanced Video Codec
Format profile : High@L4
Format settings : CABAC / 4 Ref Frames
Format settings, CABAC : Yes
Format settings, RefFrames : 4 frames
Codec ID : V_MPEG4/ISO/AVC
Duration : 45 min 37 s
Bit rate : 5 194 kb/s
Width : 1 912 pixels
Height : 1 072 pixels
Display aspect ratio : 16:9
Frame rate mode : Constant
Frame rate : 25.000 FPS
Color space : YUV
Chroma subsampling : 4:2:0
Bit depth : 8 bits
Scan type : Progressive
Bits/(Pixel*Frame) : 0.101
Stream size : 1.66 GiB (93%)
Language : English
Default : Yes
Forced : No
Color range : Limited
Color primaries : BT.709
Transfer characteristics : BT.709
Matrix coefficients : BT.709

Audio
ID : 2
Format : AC-3
Format/Info : Audio Coding 3
Format settings, Endianness : Big
Codec ID : A_AC3
Duration : 45 min 37 s
Bit rate mode : Constant
Bit rate : 384 kb/s
Channel(s) : 6 channels
Channel positions : Front: L C R, Side: L R, LFE
Sampling rate : 48.0 kHz
Frame rate : 31.250 FPS (1536 SPF)
Bit depth : 16 bits
Compression mode : Lossy
Stream size : 125 MiB (7%)
Language : English
Service kind : Complete Main
Default : Yes
Forced : No

Text
ID : 3
Format : UTF-8
Codec ID : S_TEXT/UTF8
Codec ID/Info : UTF-8 Plain Text
Duration : 44 min 46 s
Bit rate : 102 b/s
Count of elements : 883
Stream size : 33.5 KiB (0%)
Language : English
Default : Yes
Forced : No





Doctor Who S09E06


Doctor Who S09E06


Doctor Who S09E06


Doctor Who S09E06


Doctor Who S09E06

All episodes