Index
# A B C D E F G H I J K L M N O P Q R S T U V W Y Z
Tags
Language
Tags

Featured TV Shows


Doctor Who S10E01

Posted By: Tavaz
1080p (FullHD) / WEB-DL IMDb
Doctor Who S10E01

Doctor Who S10E01
WEB-DL | MKV | 1920x1080 | English | H264 @ 9809 kbps | E-AC-3 @ 640 kbps | 49 min 49 s | 3.64 GiB
Subtitles: English
Genre: Drama


The Doctor is a Time Lord: a 900 year old alien with 2 hearts, part of a gifted civilization who mastered time travel. The Doctor saves planets for a living—more of a hobby actually, and the Doctor's very, very good at it.

c08aee07d393474ca5bcdbfe3febf1e3.mkv (3.6 GB)



General
Unique ID : 235046614261419451216801841962198950729 (0xB0D454CE538C26F7BBB02889261EE349)
Complete name : ./c08aee07d393474ca5bcdbfe3febf1e3.mkv
Format : Matroska
Format version : Version 4 / Version 2
File size : 3.64 GiB
Duration : 49 min 49 s
Overall bit rate mode : Variable
Overall bit rate : 10.5 Mb/s
Encoded date : UTC 2017-07-02 02:19:49
Writing application : mkvmerge v12.0.0 ('Trust / Lust') 64bit
Writing library : libebml v1.3.4 + libmatroska v1.4.5

Video
ID : 1
Format : AVC
Format/Info : Advanced Video Codec
Format profile : High@L4
Format settings : CABAC / 4 Ref Frames
Format settings, CABAC : Yes
Format settings, RefFrames : 4 frames
Codec ID : V_MPEG4/ISO/AVC
Duration : 49 min 49 s
Bit rate mode : Variable
Bit rate : 9 809 kb/s
Maximum bit rate : 15.0 Mb/s
Width : 1 920 pixels
Height : 1 080 pixels
Display aspect ratio : 16:9
Frame rate mode : Constant
Frame rate : 25.000 FPS
Color space : YUV
Chroma subsampling : 4:2:0
Bit depth : 8 bits
Scan type : Progressive
Bits/(Pixel*Frame) : 0.189
Stream size : 3.41 GiB (94%)
Default : Yes
Forced : No
Color range : Limited
Color primaries : BT.709
Transfer characteristics : BT.709
Matrix coefficients : BT.709

Audio
ID : 2
Format : E-AC-3
Format/Info : Enhanced Audio Coding 3
Format settings, Endianness : Big
Codec ID : A_EAC3
Duration : 49 min 49 s
Bit rate mode : Constant
Bit rate : 640 kb/s
Channel(s) : 6 channels
Channel positions : Front: L C R, Side: L R, LFE
Sampling rate : 48.0 kHz
Frame rate : 187.500 FPS (256 SPF)
Compression mode : Lossy
Stream size : 228 MiB (6%)
Language : English
Service kind : Complete Main
Default : Yes
Forced : No

Text
ID : 3
Format : UTF-8
Codec ID : S_TEXT/UTF8
Codec ID/Info : UTF-8 Plain Text
Duration : 49 min 8 s
Bit rate : 62 b/s
Count of elements : 743
Stream size : 22.5 KiB (0%)
Language : English
Default : No
Forced : No

Menu
00:00:00.600 : en:Studio Logo
00:00:06.310 : en:Doctor what?
00:05:10.347 : en:Opening Credits
00:05:47.493 : en:Time And Relative Dimension In Space
00:08:13.775 : en:Pilot located
00:12:55.101 : en:Pilot engaged
00:16:53.125 : en:The Doctor inpsects the puddle
00:20:52.173 : en:TARDIS for short
00:28:54.208 : en:The Doctor runs to Australia
00:34:40.226 : en:Scene 1
00:37:40.269 : en:The pilot finds Bill again
00:44:47.292 : en:The Doctor invites Bill along
00:48:41.296 : en:Next On
00:49:17.299 : en:End Credits





Doctor Who S10E01


Doctor Who S10E01


Doctor Who S10E01


Doctor Who S10E01


Doctor Who S10E01

All episodes