Index
# A B C D E F G H I J K L M N O P Q R S T U V W Y Z
Tags
Language
Tags

Featured TV Shows


Doctor Who S10E09

Posted By: Tavaz
1080p (FullHD) / WEB-DL IMDb
Doctor Who S10E09

Doctor Who S10E09
WEB-DL | MKV | 1920x1080 | English | H264 @ 8541 kbps | E-AC-3 @ 640 kbps | 43 min 49 s | 2.81 GiB
Subtitles: English
Genre: Drama


The Doctor is a Time Lord: a 900 year old alien with 2 hearts, part of a gifted civilization who mastered time travel. The Doctor saves planets for a living—more of a hobby actually, and the Doctor's very, very good at it.

2c5d1a34def240f89b9461d008f4ae14.mkv (2.8 GB)



General
Unique ID : 175627205530785832215627615288022431075 (0x842091C5621BEA26A0960D82D82A7563)
Complete name : ./2c5d1a34def240f89b9461d008f4ae14.mkv
Format : Matroska
Format version : Version 4 / Version 2
File size : 2.81 GiB
Duration : 43 min 49 s
Overall bit rate mode : Variable
Overall bit rate : 9 184 kb/s
Encoded date : UTC 2017-07-02 02:30:55
Writing application : mkvmerge v12.0.0 ('Trust / Lust') 64bit
Writing library : libebml v1.3.4 + libmatroska v1.4.5

Video
ID : 1
Format : AVC
Format/Info : Advanced Video Codec
Format profile : High@L4
Format settings : CABAC / 4 Ref Frames
Format settings, CABAC : Yes
Format settings, RefFrames : 4 frames
Codec ID : V_MPEG4/ISO/AVC
Duration : 43 min 49 s
Bit rate mode : Variable
Bit rate : 8 542 kb/s
Maximum bit rate : 15.0 Mb/s
Width : 1 920 pixels
Height : 1 080 pixels
Display aspect ratio : 16:9
Frame rate mode : Constant
Frame rate : 25.000 FPS
Color space : YUV
Chroma subsampling : 4:2:0
Bit depth : 8 bits
Scan type : Progressive
Bits/(Pixel*Frame) : 0.165
Stream size : 2.61 GiB (93%)
Default : Yes
Forced : No
Color range : Limited
Color primaries : BT.709
Transfer characteristics : BT.709
Matrix coefficients : BT.709

Audio
ID : 2
Format : E-AC-3
Format/Info : Enhanced Audio Coding 3
Format settings, Endianness : Big
Codec ID : A_EAC3
Duration : 43 min 49 s
Bit rate mode : Constant
Bit rate : 640 kb/s
Channel(s) : 6 channels
Channel positions : Front: L C R, Side: L R, LFE
Sampling rate : 48.0 kHz
Frame rate : 187.500 FPS (256 SPF)
Compression mode : Lossy
Stream size : 201 MiB (7%)
Language : English
Service kind : Complete Main
Default : Yes
Forced : No

Text
ID : 3
Format : UTF-8
Codec ID : S_TEXT/UTF8
Codec ID/Info : UTF-8 Plain Text
Duration : 43 min 8 s
Bit rate : 69 b/s
Count of elements : 806
Stream size : 21.9 KiB (0%)
Language : English
Default : No
Forced : No





Doctor Who S10E09


Doctor Who S10E09


Doctor Who S10E09


Doctor Who S10E09


Doctor Who S10E09

All episodes