Index
# A B C D E F G H I J K L M N O P Q R S T U V W Y Z
Tags
Language
Tags

Featured TV Shows


Doctor Who S11E01

Posted By: Tavaz
1080p (FullHD) / WEB-DL IMDb
Doctor Who S11E01

Doctor Who S11E01
WEB-DL | MKV | 1920x960 | German | H264 @ 4637 kbps | E-AC-3 @ 640 kbps | 1 h 3 min | 2.33 GiB
Genre: Drama

The Doctor is a Time Lord: a 900 year old alien with 2 hearts, part of a gifted civilization who mastered time travel. The Doctor saves planets for a living – more of a hobby actually, and the Doctor's very, very good at it.

afcc25c437ca4c1e98ef76bc92136fe5.mkv (2.3 GB)



General
Unique ID : 204555539872860696061790720900812508985 (0x99E3F6C5A21C2FF6A266789E4B3C0F39)
Complete name : ./afcc25c437ca4c1e98ef76bc92136fe5.mkv
Format : Matroska
Format version : Version 4 / Version 2
File size : 2.33 GiB
Duration : 1 h 3 min
Overall bit rate : 5 279 kb/s
Encoded date : UTC 2018-10-08 00:07:09
Writing application : mkvmerge v13.0.0 ('The Juggler') 64bit
Writing library : libebml v1.3.4 + libmatroska v1.4.5

Video
ID : 1
Format : AVC
Format/Info : Advanced Video Codec
Format profile : High@L4
Format settings : CABAC / 4 Ref Frames
Format settings, CABAC : Yes
Format settings, RefFrames : 4 frames
Codec ID : V_MPEG4/ISO/AVC
Duration : 1 h 3 min
Bit rate : 4 637 kb/s
Width : 1 920 pixels
Height : 960 pixels
Display aspect ratio : 2.000
Frame rate mode : Constant
Frame rate : 25.000 FPS
Color space : YUV
Chroma subsampling : 4:2:0
Bit depth : 8 bits
Scan type : Progressive
Bits/(Pixel*Frame) : 0.101
Stream size : 2.05 GiB (88%)
Default : Yes
Forced : No
Color range : Limited
Color primaries : BT.709
Transfer characteristics : BT.709
Matrix coefficients : BT.709

Audio
ID : 2
Format : E-AC-3
Format/Info : Enhanced Audio Coding 3
Format settings, Endianness : Big
Codec ID : A_EAC3
Duration : 1 h 3 min
Bit rate mode : Constant
Bit rate : 640 kb/s
Channel(s) : 6 channels
Channel positions : Front: L C R, Side: L R, LFE
Sampling rate : 48.0 kHz
Frame rate : 187.500 FPS (256 SPF)
Compression mode : Lossy
Stream size : 289 MiB (12%)
Language : German
Service kind : Complete Main
Default : Yes
Forced : No





Doctor Who S11E01


Doctor Who S11E01


Doctor Who S11E01


Doctor Who S11E01


Doctor Who S11E01

All episodes