Index
# A B C D E F G H I J K L M N O P Q R S T U V W Y Z
Tags
Language
Tags

Featured TV Shows


Doctor Who S11E01

Posted By: Tavaz
720p (HD) / WEB-DL IMDb
Doctor Who S11E01

Doctor Who S11E01
WEB-DL | MKV | 1280x720 | English | H264 @ 2593 kbps | E-AC-3 @ 640 kbps | 1 h 3 min | 1.43 GiB
Subtitles: English
Genre: Drama

The Doctor looks and seems human. He's handsome, witty, and could be mistaken for just another man in the street. But he is a Time Lord: a 900 year old alien with 2 hearts, part of a gifted civilization who mastered time travel. The Doctor saves planets for a living – more of a hobby actually, and he's very, very good at it. He's saved us from alien menaces and evil from before time began – but just who is he?

04c7ac4bd4404bca9c226ae11d2638d2.mkv (1.4 GB)



General
Unique ID : 252052671057987154199212545708156739575 (0xBD9F9424111C9AB4A5E2FC6237335FF7)
Complete name : ./04c7ac4bd4404bca9c226ae11d2638d2.mkv
Format : Matroska
Format version : Version 4 / Version 2
File size : 1.43 GiB
Duration : 1 h 3 min
Overall bit rate mode : Variable
Overall bit rate : 3 236 kb/s
Encoded date : UTC 2018-10-27 23:39:47
Writing application : mkvmerge v13.0.0 ('The Juggler') 64bit
Writing library : libebml v1.3.4 + libmatroska v1.4.5

Video
ID : 1
Format : AVC
Format/Info : Advanced Video Codec
Format profile : High@L3.1
Format settings : CABAC / 5 Ref Frames
Format settings, CABAC : Yes
Format settings, RefFrames : 5 frames
Codec ID : V_MPEG4/ISO/AVC
Duration : 1 h 3 min
Bit rate mode : Variable
Bit rate : 2 594 kb/s
Maximum bit rate : 4 500 kb/s
Width : 1 280 pixels
Height : 720 pixels
Display aspect ratio : 16:9
Frame rate mode : Constant
Frame rate : 25.000 FPS
Color space : YUV
Chroma subsampling : 4:2:0
Bit depth : 8 bits
Scan type : Progressive
Bits/(Pixel*Frame) : 0.113
Stream size : 1.14 GiB (80%)
Default : Yes
Forced : No
Color range : Limited
Color primaries : BT.709
Transfer characteristics : BT.709
Matrix coefficients : BT.709

Audio
ID : 2
Format : E-AC-3
Format/Info : Enhanced Audio Coding 3
Format settings, Endianness : Big
Codec ID : A_EAC3
Duration : 1 h 3 min
Bit rate mode : Constant
Bit rate : 640 kb/s
Channel(s) : 6 channels
Channel positions : Front: L C R, Side: L R, LFE
Sampling rate : 48.0 kHz
Frame rate : 187.500 FPS (256 SPF)
Compression mode : Lossy
Stream size : 289 MiB (20%)
Language : English
Service kind : Complete Main
Default : Yes
Forced : No

Text #1
ID : 3
Format : UTF-8
Codec ID : S_TEXT/UTF8
Codec ID/Info : UTF-8 Plain Text
Duration : 1 h 2 min
Bit rate : 59 b/s
Count of elements : 864
Stream size : 27.2 KiB (0%)
Language : English
Default : No
Forced : No

Text #2
ID : 4
Format : UTF-8
Codec ID : S_TEXT/UTF8
Codec ID/Info : UTF-8 Plain Text
Duration : 1 h 2 min
Bit rate : 67 b/s
Count of elements : 994
Stream size : 31.1 KiB (0%)
Title : SDH
Language : English
Default : No
Forced : No

Menu
00:00:00.000 : en:Studio Logo
00:00:04.000 : en:Ryan discovers something in the woods
00:04:00.000 : en:PC Khan responds to Ryan's call
00:06:18.000 : en:There's a disturbance on the train
00:10:33.000 : en:The Doctor tries to figure out a plan
00:15:39.000 : en:Everyone is searching for answers
00:23:51.000 : en:The Doctor builds herself a new tool
00:33:18.000 : en:The Doctor tries to figure out what the alien wants
00:39:25.000 : en:The Doctor and friends try to rescue Karl
00:47:44.000 : en:The Doctor gives Tim Shaw a chance to change
00:53:18.000 : en:Nobody ever knows how much time they have
00:58:57.000 : en:The Doctor starts to feel like herself again
01:01:30.000 : en:End Credits
01:02:00.000 : en:Coming Soon





Doctor Who S11E01


Doctor Who S11E01


Doctor Who S11E01


Doctor Who S11E01


Doctor Who S11E01

All episodes