Index
# A B C D E F G H I J K L M N O P Q R S T U V W Y Z
Tags
Language
Tags

Featured TV Shows


Doctor Who S11E02

Posted By: Tavaz
Doctor Who S11E02

Doctor Who S11E02
MKV | 1920x960 | English | H264 @ 5682 kbps | E-AC-3 @ 640 kbps | 48 min 56 s | 2.16 GiB
Genre: Drama

The Doctor looks and seems human. He's handsome, witty, and could be mistaken for just another man in the street. But he is a Time Lord: a 900 year old alien with 2 hearts, part of a gifted civilization who mastered time travel. The Doctor saves planets for a living – more of a hobby actually, and he's very, very good at it. He's saved us from alien menaces and evil from before time began – but just who is he?

Doctor.Who.2005.S11E02.The.Ghost.Monument.1080p.AMZN.WEB-DL.DDP5.1.H.264-NTb.mkv (2.2 GB)



General
Unique ID : 245487954888181242877945066897707806838 (0xB8AF42A505EBC8F293FB746710AEB076)
Complete name : ./Doctor.Who.2005.S11E02.The.Ghost.Monument.1080p.AMZN.WEB-DL.DDP5.1.H.264-NTb.mkv
Format : Matroska
Format version : Version 4 / Version 2
File size : 2.16 GiB
Duration : 48 min 56 s
Overall bit rate : 6 325 kb/s
Encoded date : UTC 2018-10-14 23:07:02
Writing application : mkvmerge v13.0.0 ('The Juggler') 64bit
Writing library : libebml v1.3.4 + libmatroska v1.4.5

Video
ID : 1
Format : AVC
Format/Info : Advanced Video Codec
Format profile : High@L4
Format settings : CABAC / 4 Ref Frames
Format settings, CABAC : Yes
Format settings, RefFrames : 4 frames
Codec ID : V_MPEG4/ISO/AVC
Duration : 48 min 56 s
Bit rate : 5 683 kb/s
Width : 1 920 pixels
Height : 960 pixels
Display aspect ratio : 2.000
Frame rate mode : Constant
Frame rate : 25.000 FPS
Color space : YUV
Chroma subsampling : 4:2:0
Bit depth : 8 bits
Scan type : Progressive
Bits/(Pixel*Frame) : 0.123
Stream size : 1.94 GiB (90%)
Default : Yes
Forced : No
Color range : Limited
Color primaries : BT.709
Transfer characteristics : BT.709
Matrix coefficients : BT.709

Audio
ID : 2
Format : E-AC-3
Format/Info : Enhanced Audio Coding 3
Format settings, Endianness : Big
Codec ID : A_EAC3
Duration : 48 min 56 s
Bit rate mode : Constant
Bit rate : 640 kb/s
Channel(s) : 6 channels
Channel positions : Front: L C R, Side: L R, LFE
Sampling rate : 48.0 kHz
Frame rate : 187.500 FPS (256 SPF)
Compression mode : Lossy
Stream size : 224 MiB (10%)
Language : English
Service kind : Complete Main
Default : Yes
Forced : No

Menu
00:00:00.000 : en:Studio Logo
00:00:07.000 : en:Title Sequence
00:00:41.000 : en:The Doctor and friends arrive on a strange planet
00:10:44.000 : en:The Rally of the 12 Galaxies
00:17:09.000 : en:The Doctor tries to get everyone to work together
00:21:09.000 : en:Family means something different to everyone
00:24:40.000 : en:Brains beat bullets
00:31:03.000 : en:The Doctor gets a glimpse into the planet's past
00:38:41.000 : en:What do the remnants know about The Doctor
00:40:57.000 : en:Pay the prize or pay the price
00:43:22.000 : en:My beautiful ghost monument
00:48:10.000 : en:End Credits





Doctor Who S11E02


Doctor Who S11E02


Doctor Who S11E02


Doctor Who S11E02


Doctor Who S11E02

All episodes