Index
# A B C D E F G H I J K L M N O P Q R S T U V W Y Z
Tags
Language
Tags

Featured TV Shows


Doctor Who S11E03

Posted By: Tavaz
Doctor Who S11E03

Doctor Who S11E03
MKV | 1920x960 | English | H264 @ 4666 kbps | E-AC-3 @ 640 kbps | 49 min 47 s | 1.85 GiB
Genre: Drama

The Doctor looks and seems human. He's handsome, witty, and could be mistaken for just another man in the street. But he is a Time Lord: a 900 year old alien with 2 hearts, part of a gifted civilization who mastered time travel. The Doctor saves planets for a living – more of a hobby actually, and he's very, very good at it. He's saved us from alien menaces and evil from before time began – but just who is he?

Doctor.Who.2005.S11E03.Rosa.1080p.AMZN.WEB-DL.DDP5.1.H.264.NTb.UKSubs.mkv (1.8 GB)



General
Unique ID : 233363097311313780875213902370193237479 (0xAF9019030AFC56C1D6F83909EB4765E7)
Complete name : ./Doctor.Who.2005.S11E03.Rosa.1080p.AMZN.WEB-DL.DDP5.1.H.264.NTb.UKSubs.mkv
Format : Matroska
Format version : Version 4 / Version 2
File size : 1.85 GiB
Duration : 49 min 47 s
Overall bit rate : 5 308 kb/s
Encoded date : UTC 2018-10-22 10:22:31
Writing application : mkvmerge v24.0.0 ('Beyond The Pale') 64-bit
Writing library : libebml v1.3.6 + libmatroska v1.4.9

Video
ID : 1
Format : AVC
Format/Info : Advanced Video Codec
Format profile : High@L4
Format settings : CABAC / 4 Ref Frames
Format settings, CABAC : Yes
Format settings, RefFrames : 4 frames
Codec ID : V_MPEG4/ISO/AVC
Duration : 49 min 47 s
Bit rate : 4 666 kb/s
Width : 1 920 pixels
Height : 960 pixels
Display aspect ratio : 2.000
Frame rate mode : Constant
Frame rate : 25.000 FPS
Color space : YUV
Chroma subsampling : 4:2:0
Bit depth : 8 bits
Scan type : Progressive
Bits/(Pixel*Frame) : 0.101
Stream size : 1.62 GiB (88%)
Default : Yes
Forced : No
Color range : Limited
Color primaries : BT.709
Transfer characteristics : BT.709
Matrix coefficients : BT.709

Audio
ID : 2
Format : E-AC-3
Format/Info : Enhanced Audio Coding 3
Format settings, Endianness : Big
Codec ID : A_EAC3
Duration : 49 min 47 s
Bit rate mode : Constant
Bit rate : 640 kb/s
Channel(s) : 6 channels
Channel positions : Front: L C R, Side: L R, LFE
Sampling rate : 48.0 kHz
Frame rate : 187.500 FPS (256 SPF)
Compression mode : Lossy
Stream size : 228 MiB (12%)
Language : English
Service kind : Complete Main
Default : Yes
Forced : No

Text
ID : 3
Format : UTF-8
Codec ID : S_TEXT/UTF8
Codec ID/Info : UTF-8 Plain Text
Duration : 49 min 33 s
Bit rate : 83 b/s
Count of elements : 920
Stream size : 30.2 KiB (0%)
Default : Yes
Forced : No

Menu
00:00:00.000 : en:Studio Logo
00:00:07.000 : en:Opening Credits
00:00:41.000 : en:Scene 3
00:10:35.000 : en:Scene 4
00:20:16.000 : en:Scene 5
00:24:48.000 : en:Scene 6
00:33:01.000 : en:Scene 7
00:39:49.000 : en:Scene 8
00:49:00.000 : en:End Credits
00:49:30.000 : en:Next Time





Doctor Who S11E03


Doctor Who S11E03


Doctor Who S11E03


Doctor Who S11E03


Doctor Who S11E03

All episodes