Index
# A B C D E F G H I J K L M N O P Q R S T U V W Y Z
Tags
Language
Tags

Featured TV Shows


Doctor Who S11E04

Posted By: Tavaz
1080p (FullHD) / WEB-DL IMDb
Doctor Who S11E04

Doctor Who S11E04
WEB-DL | MKV | 1920x960 | English | H264 @ 4198 kbps | E-AC-3 @ 640 kbps | 49 min 31 s | 1.67 GiB
Genre: Drama

The Doctor looks and seems human. He's handsome, witty, and could be mistaken for just another man in the street. But he is a Time Lord: a 900 year old alien with 2 hearts, part of a gifted civilization who mastered time travel. The Doctor saves planets for a living – more of a hobby actually, and he's very, very good at it. He's saved us from alien menaces and evil from before time began – but just who is he?

e97f3d467e2941c4b9c1e58295e6aa36.mkv (1.7 GB)



General
Unique ID : 224266973759746404649124572256349405781 (0xA8B83F7EE690D0A493FD664993974255)
Complete name : ./e97f3d467e2941c4b9c1e58295e6aa36.mkv
Format : Matroska
Format version : Version 4 / Version 2
File size : 1.67 GiB
Duration : 49 min 31 s
Overall bit rate : 4 841 kb/s
Encoded date : UTC 2018-10-29 00:02:10
Writing application : mkvmerge v13.0.0 ('The Juggler') 64bit
Writing library : libebml v1.3.4 + libmatroska v1.4.5

Video
ID : 1
Format : AVC
Format/Info : Advanced Video Codec
Format profile : High@L4
Format settings : CABAC / 4 Ref Frames
Format settings, CABAC : Yes
Format settings, RefFrames : 4 frames
Codec ID : V_MPEG4/ISO/AVC
Duration : 49 min 31 s
Bit rate : 4 199 kb/s
Width : 1 920 pixels
Height : 960 pixels
Display aspect ratio : 2.000
Frame rate mode : Constant
Frame rate : 25.000 FPS
Color space : YUV
Chroma subsampling : 4:2:0
Bit depth : 8 bits
Scan type : Progressive
Bits/(Pixel*Frame) : 0.091
Stream size : 1.45 GiB (87%)
Default : Yes
Forced : No
Color range : Limited
Color primaries : BT.709
Transfer characteristics : BT.709
Matrix coefficients : BT.709

Audio
ID : 2
Format : E-AC-3
Format/Info : Enhanced Audio Coding 3
Format settings, Endianness : Big
Codec ID : A_EAC3
Duration : 49 min 31 s
Bit rate mode : Constant
Bit rate : 640 kb/s
Channel(s) : 6 channels
Channel positions : Front: L C R, Side: L R, LFE
Sampling rate : 48.0 kHz
Frame rate : 187.500 FPS (256 SPF)
Compression mode : Lossy
Stream size : 227 MiB (13%)
Language : English
Service kind : Complete Main
Default : Yes
Forced : No

Menu
00:00:00.000 : en:Studio Logo
00:00:07.000 : en:Title Sequence
00:00:41.000 : en:Robertson is a demanding man of action
00:02:46.000 : en:The Doctor isn't good at small talk
00:08:45.000 : en:Something is happening with the spiders in the city
00:15:23.000 : en:The Doctor investigates a message from the spiders
00:24:41.000 : en:Robertson's hotel has become a spider's paradise
00:32:19.000 : en:The source for the mutation is discovered underground
00:36:54.000 : en:There's a plague in the hotel that needs to be fixed
00:38:59.000 : en:The best novel Edith Wharton never wrote
00:42:24.000 : en:I don't see any mercy in you, God help us all
00:44:28.000 : en:Everyone hates a proper goodbye
00:48:46.000 : en:End Credits
00:49:16.000 : en:Next Time





Doctor Who S11E04


Doctor Who S11E04


Doctor Who S11E04


Doctor Who S11E04


Doctor Who S11E04

All episodes