Index
# A B C D E F G H I J K L M N O P Q R S T U V W Y Z
Tags
Language
Tags

Featured TV Shows


Doctor Who S11E05

Posted By: Tavaz
Doctor Who S11E05

Doctor Who S11E05
MKV | 1920x960 | English | H264 @ 6249 kbps | E-AC-3 @ 640 kbps | 50 min 48 s | 2.45 GiB
Subtitles: English
Genre: Drama

The Doctor is a Time Lord: a 900 year old alien with 2 hearts, part of a gifted civilization who mastered time travel. The Doctor saves planets for a living – more of a hobby actually, and the Doctor's very, very good at it.

VnkS1WcfvHUpvMxoqZuUo.mkv (2.4 GB)



General
Unique ID : 238763908247261639977485922856702016614 (0xB3A0418CB464C79A8B17185E00FB7C66)
Complete name : ./VnkS1WcfvHUpvMxoqZuUo.mkv
Format : Matroska
Format version : Version 4 / Version 2
File size : 2.45 GiB
Duration : 50 min 48 s
Overall bit rate : 6 892 kb/s
Encoded date : UTC 2018-11-05 00:02:58
Writing application : mkvmerge v13.0.0 ('The Juggler') 64bit
Writing library : libebml v1.3.4 + libmatroska v1.4.5

Video
ID : 1
Format : AVC
Format/Info : Advanced Video Codec
Format profile : High@L4
Format settings : CABAC / 4 Ref Frames
Format settings, CABAC : Yes
Format settings, RefFrames : 4 frames
Codec ID : V_MPEG4/ISO/AVC
Duration : 50 min 48 s
Bit rate : 6 250 kb/s
Width : 1 920 pixels
Height : 960 pixels
Display aspect ratio : 2.000
Frame rate mode : Constant
Frame rate : 25.000 FPS
Color space : YUV
Chroma subsampling : 4:2:0
Bit depth : 8 bits
Scan type : Progressive
Bits/(Pixel*Frame) : 0.136
Stream size : 2.22 GiB (91%)
Default : Yes
Forced : No
Color range : Limited
Color primaries : BT.709
Transfer characteristics : BT.709
Matrix coefficients : BT.709

Audio
ID : 2
Format : E-AC-3
Format/Info : Enhanced Audio Coding 3
Format settings, Endianness : Big
Codec ID : A_EAC3
Duration : 50 min 48 s
Bit rate mode : Constant
Bit rate : 640 kb/s
Channel(s) : 6 channels
Channel positions : Front: L C R, Side: L R, LFE
Sampling rate : 48.0 kHz
Frame rate : 187.500 FPS (256 SPF)
Compression mode : Lossy
Stream size : 233 MiB (9%)
Language : English
Service kind : Complete Main
Default : Yes
Forced : No

Text #1
ID : 3
Format : UTF-8
Codec ID : S_TEXT/UTF8
Codec ID/Info : UTF-8 Plain Text
Duration : 49 min 52 s
Bit rate : 87 b/s
Count of elements : 1054
Stream size : 32.0 KiB (0%)
Language : English
Default : No
Forced : No

Text #2
ID : 4
Format : UTF-8
Codec ID : S_TEXT/UTF8
Codec ID/Info : UTF-8 Plain Text
Duration : 50 min 36 s
Bit rate : 91 b/s
Count of elements : 1135
Stream size : 33.9 KiB (0%)
Title : SDH
Language : English
Default : No
Forced : No

Menu
00:00:00.000 : en:Studio Logo
00:00:07.000 : en:Opening Credits
00:00:41.000 : en:Their latest trip lands them trapped in a hospital
00:06:55.000 : en:Something has breached the ships shields
00:11:17.000 : en:Astos makes a rookie mistake
00:19:42.000 : en:Ryan shares something personal with Yaz
00:23:44.000 : en:Whole worlds pivot on acts of imagination
00:28:57.000 : en:Durkas finds out the truth about his sister
00:33:54.000 : en:The Doctor figures out what the Pting wants
00:38:08.000 : en:The Doctor sets a trap
00:44:14.000 : en:You don't have to be perfect, you just have to be there
00:46:57.000 : en:People prevail because hope prevails
00:50:03.000 : en:End Credits
00:50:33.000 : en:Next Time





Doctor Who S11E05


Doctor Who S11E05


Doctor Who S11E05


Doctor Who S11E05


Doctor Who S11E05

All episodes