Index
# A B C D E F G H I J K L M N O P Q R S T U V W Y Z
Tags
Language
Tags

Featured TV Shows


Doctor Who S11E08

Posted By: Tavaz
1080p (FullHD) / HDTV IMDb
Doctor Who S11E08

Doctor Who S11E08
HDTV | MKV | 1920x960 | English / English | H264 @ 5785 kbps | AC-3 @ 384 kbps | 46 min 31 s | 2.13 GiB
Subtitles: English
Genre: Drama

The Doctor is a Time Lord: a 900 year old alien with 2 hearts, part of a gifted civilization who mastered time travel. The Doctor saves planets for a living – more of a hobby actually, and the Doctor's very, very good at it.

08c078ad083a483baaa44bf0378e4eb3.mkv (2.1 GB)



General
Unique ID : 289169785886235279565214289966261164094 (0xD98C1330E893F48BD1BC13A2D101583E)
Complete name : ./08c078ad083a483baaa44bf0378e4eb3.mkv
Format : Matroska
Format version : Version 4 / Version 2
File size : 2.13 GiB
Duration : 46 min 31 s
Overall bit rate : 6 556 kb/s
Movie name : Doctor Who 2005 S11E08 The Witchfinders 1080p HDTV x264 KETTLE
Encoded date : UTC 2018-11-25 19:23:01
Writing application : !–[What's All This Then!]–!
Writing library : {{–-> x264/H264 User Un-Friendly Encoding/Muxing TooL <–-}}

Video
ID : 1
Format : AVC
Format/Info : Advanced Video Codec
Format profile : High@L4.2
Format settings : CABAC / 4 Ref Frames
Format settings, CABAC : Yes
Format settings, RefFrames : 4 frames
Codec ID : V_MPEG4/ISO/AVC
Duration : 46 min 31 s
Bit rate : 5 786 kb/s
Width : 1 920 pixels
Height : 960 pixels
Display aspect ratio : 2.000
Frame rate mode : Constant
Frame rate : 25.000 FPS
Color space : YUV
Chroma subsampling : 4:2:0
Bit depth : 8 bits
Scan type : Progressive
Bits/(Pixel*Frame) : 0.126
Stream size : 1.88 GiB (88%)
Writing library : x264 core 157 r2935 545de2f KETTLE's/BRiTiSHB00Bs' Custom Build (o_o) :o
Encoding settings : cabac=1 / ref=4 / deblock=1:-2:-2 / analyse=0x3:0x113 / me=umh / subme=9 / psy=1 / psy_rd=1.00:0.00 / mixed_ref=1 / me_range=16 / chroma_me=1 / trellis=2 / 8x8dct=1 / cqm=0 / deadzone=21,11 / fast_pskip=1 / chroma_qp_offset=-2 / threads=18 / lookahead_threads=1 / sliced_threads=0 / nr=0 / decimate=1 / interlaced=0 / bluray_compat=0 / constrained_intra=0 / bframes=5 / b_pyramid=2 / b_adapt=1 / b_bias=0 / direct=3 / weightb=1 / open_gop=0 / weightp=2 / keyint=250 / keyint_min=25 / scenecut=40 / intra_refresh=0 / rc_lookahead=50 / rc=crf / mbtree=1 / crf=17.0 / qcomp=0.60 / qpmin=0 / qpmax=69 / qpstep=4 / ip_ratio=1.40 / aq=1:1.00
Language : English
Default : Yes
Forced : No
Color range : Limited
Matrix coefficients : BT.709

Audio #1
ID : 2
Format : AC-3
Format/Info : Audio Coding 3
Format settings, Endianness : Big
Codec ID : A_AC3
Duration : 46 min 31 s
Bit rate mode : Constant
Bit rate : 384 kb/s
Channel(s) : 6 channels
Channel positions : Front: L C R, Side: L R, LFE
Sampling rate : 48.0 kHz
Frame rate : 31.250 FPS (1536 SPF)
Bit depth : 16 bits
Compression mode : Lossy
Delay relative to video : 16 ms
Stream size : 128 MiB (6%)
Language : English
Service kind : Complete Main
Default : Yes
Forced : No

Audio #2
ID : 3
Format : MPEG Audio
Format version : Version 1
Format profile : Layer 2
Codec ID : A_MPEG/L2
Codec ID/Hint : MP2
Duration : 46 min 31 s
Bit rate mode : Constant
Bit rate : 256 kb/s
Channel(s) : 2 channels
Sampling rate : 48.0 kHz
Compression mode : Lossy
Delay relative to video : 5 ms
Stream size : 85.2 MiB (4%)
Title : Audio Description
Language : English
Default : No
Forced : No

Text
ID : 4
Format : UTF-8
Codec ID : S_TEXT/UTF8
Codec ID/Info : UTF-8 Plain Text
Language : English
Default : No
Forced : No





Doctor Who S11E08


Doctor Who S11E08


Doctor Who S11E08


Doctor Who S11E08


Doctor Who S11E08

All episodes