Index
# A B C D E F G H I J K L M N O P Q R S T U V W Y Z
Tags
Language
Tags

Featured TV Shows


Doctor Who S11E08

Posted By: Tavaz
SD / WEB-DL IMDb
Doctor Who S11E08

Doctor Who S11E08
WEB-DL | MKV | 960x540 | English | H264 @ 1591 kbps | AAC @ 317 kbps | 46 min 31 s | 636 MiB
Subtitles: English
Genre: Drama

The Doctor is a Time Lord: a 900 year old alien with 2 hearts, part of a gifted civilization who mastered time travel. The Doctor saves planets for a living – more of a hobby actually, and the Doctor's very, very good at it.

ff2026648e1f44c2bca00c3071da24f0.mkv (636.2 MB)



General
Unique ID : 76069365207887879281054781086094063338 (0x393A6D44C27CAAD97A4E8ABD5C2FF6EA)
Complete name : ./ff2026648e1f44c2bca00c3071da24f0.mkv
Format : Matroska
Format version : Version 4 / Version 2
File size : 636 MiB
Duration : 46 min 31 s
Overall bit rate : 1 912 kb/s
Encoded date : UTC 2018-11-26 00:25:04
Writing application : mkvmerge v28.0.0 ('Voice In My Head') 64-bit
Writing library : libebml v1.3.6 + libmatroska v1.4.9

Video
ID : 3
Format : AVC
Format/Info : Advanced Video Codec
Format profile : Main@L3.1
Format settings : CABAC / 4 Ref Frames
Format settings, CABAC : Yes
Format settings, RefFrames : 4 frames
Codec ID : V_MPEG4/ISO/AVC
Duration : 46 min 31 s
Bit rate : 1 592 kb/s
Width : 960 pixels
Height : 540 pixels
Display aspect ratio : 16:9
Frame rate mode : Constant
Frame rate : 25.000 FPS
Color space : YUV
Chroma subsampling : 4:2:0
Bit depth : 8 bits
Scan type : Progressive
Bits/(Pixel*Frame) : 0.123
Stream size : 530 MiB (83%)
Language : English
Default : Yes
Forced : No
Color range : Limited
Color primaries : BT.709
Transfer characteristics : BT.709
Matrix coefficients : BT.709

Audio
ID : 2
Format : AAC
Format/Info : Advanced Audio Codec
Format profile : LC
Codec ID : A_AAC-2
Duration : 46 min 31 s
Bit rate : 317 kb/s
Channel(s) : 2 channels
Channel positions : Front: L R
Sampling rate : 48.0 kHz
Frame rate : 46.875 FPS (1024 SPF)
Compression mode : Lossy
Stream size : 106 MiB (17%)
Language : English
Default : Yes
Forced : No

Text
ID : 1
Format : UTF-8
Codec ID : S_TEXT/UTF8
Codec ID/Info : UTF-8 Plain Text
Duration : 45 min 53 s
Bit rate : 198 b/s
Count of elements : 879
Stream size : 66.6 KiB (0%)
Language : English
Default : Yes
Forced : No





Doctor Who S11E08


Doctor Who S11E08


Doctor Who S11E08


Doctor Who S11E08


Doctor Who S11E08

All episodes