Index
# A B C D E F G H I J K L M N O P Q R S T U V W Y Z
Tags
Language
Tags

Featured TV Shows


Doctor Who S11E09

Posted By: Tavaz
720p (HD) / WEB-DL IMDb
Doctor Who S11E09

Doctor Who S11E09
WEB-DL | MKV | 1280x640 | H264 @ 1491 kbps | E-AC-3 @ 640 kbps | 49 min 21 s | 768 MiB
Genre: Drama

The Doctor is a Time Lord: a 900 year old alien with 2 hearts, part of a gifted civilization who mastered time travel. The Doctor saves planets for a living – more of a hobby actually, and the Doctor's very, very good at it.

fb1fc84e6c934fef9f8774f9caf0262e.mkv (767.9 MB)



General
Unique ID : 252589273019961761303444791040201634619 (0xBE06ECA904AFEA91CD73940CF07AB33B)
Complete name : ./fb1fc84e6c934fef9f8774f9caf0262e.mkv
Format : Matroska
Format version : Version 4 / Version 2
File size : 768 MiB
Duration : 49 min 21 s
Overall bit rate : 2 175 kb/s
Writing application : Lavf57.82.100
Writing library : Lavf57.82.100
ErrorDetectionType : Per level 1

Video
ID : 1
Format : AVC
Format/Info : Advanced Video Codec
Format profile : High@L3.1
Format settings : CABAC / 5 Ref Frames
Format settings, CABAC : Yes
Format settings, RefFrames : 5 frames
Codec ID : V_MPEG4/ISO/AVC
Duration : 49 min 21 s
Bit rate : 1 492 kb/s
Width : 1 280 pixels
Height : 640 pixels
Display aspect ratio : 2.000
Frame rate mode : Constant
Frame rate : 25.000 FPS
Color space : YUV
Chroma subsampling : 4:2:0
Bit depth : 8 bits
Scan type : Progressive
Bits/(Pixel*Frame) : 0.073
Stream size : 527 MiB (69%)
Default : Yes
Forced : No
Color range : Limited
Color primaries : BT.709
Transfer characteristics : BT.709
Matrix coefficients : BT.709

Audio
ID : 2
Format : E-AC-3
Format/Info : Enhanced Audio Coding 3
Format settings, Endianness : Big
Codec ID : A_EAC3
Duration : 49 min 21 s
Bit rate mode : Constant
Bit rate : 640 kb/s
Channel(s) : 6 channels
Channel positions : Front: L C R, Side: L R, LFE
Sampling rate : 48.0 kHz
Frame rate : 187.500 FPS (256 SPF)
Bit depth : 32 bits
Compression mode : Lossy
Stream size : 226 MiB (29%)
Service kind : Complete Main
Default : Yes
Forced : No

Text
ID : 3
Format : ASS
Codec ID : S_TEXT/ASS
Codec ID/Info : Advanced Sub Station Alpha
Duration : 49 min 13 s
Compression mode : Lossless
Writing library : Lavc57.106.101 ssa
Default : No
Forced : No





Doctor Who S11E09


Doctor Who S11E09


Doctor Who S11E09


Doctor Who S11E09


Doctor Who S11E09

All episodes