Index
# A B C D E F G H I J K L M N O P Q R S T U V W Y Z
Tags
Language
Tags

Featured TV Shows


Doctor Who S11E10

Posted By: Tavaz
SD / WEB-DL IMDb
Doctor Who S11E10

Doctor Who S11E10
WEB-DL | MKV | 960x540 | English | H264 @ 1515 kbps | AAC @ 317 kbps | 49 min 40 s | 652 MiB
Subtitles: English
Genre: Drama

The Doctor is a Time Lord: a 900 year old alien with 2 hearts, part of a gifted civilization who mastered time travel. The Doctor saves planets for a living – more of a hobby actually, and the Doctor's very, very good at it.

b91aebd29758495cb7010e5fb6936788.mkv (652.1 MB)



General
Unique ID : 290664325662924114536324126161911644225 (0xDAABE9B0ED324A7C6E0514EECFC78041)
Complete name : ./b91aebd29758495cb7010e5fb6936788.mkv
Format : Matroska
Format version : Version 4 / Version 2
File size : 652 MiB
Duration : 49 min 40 s
Overall bit rate : 1 835 kb/s
Encoded date : UTC 2018-12-10 01:36:41
Writing application : mkvmerge v28.0.0 ('Voice In My Head') 64-bit
Writing library : libebml v1.3.6 + libmatroska v1.4.9

Video
ID : 3
Format : AVC
Format/Info : Advanced Video Codec
Format profile : Main@L3.1
Format settings : CABAC / 4 Ref Frames
Format settings, CABAC : Yes
Format settings, RefFrames : 4 frames
Codec ID : V_MPEG4/ISO/AVC
Duration : 49 min 40 s
Bit rate : 1 515 kb/s
Width : 960 pixels
Height : 540 pixels
Display aspect ratio : 16:9
Frame rate mode : Constant
Frame rate : 25.000 FPS
Color space : YUV
Chroma subsampling : 4:2:0
Bit depth : 8 bits
Scan type : Progressive
Bits/(Pixel*Frame) : 0.117
Stream size : 538 MiB (83%)
Language : English
Default : Yes
Forced : No
Color range : Limited
Color primaries : BT.709
Transfer characteristics : BT.709
Matrix coefficients : BT.709

Audio
ID : 2
Format : AAC
Format/Info : Advanced Audio Codec
Format profile : LC
Codec ID : A_AAC-2
Duration : 49 min 40 s
Bit rate : 317 kb/s
Channel(s) : 2 channels
Channel positions : Front: L R
Sampling rate : 48.0 kHz
Frame rate : 46.875 FPS (1024 SPF)
Compression mode : Lossy
Stream size : 113 MiB (17%)
Language : English
Default : Yes
Forced : No

Text
ID : 1
Format : UTF-8
Codec ID : S_TEXT/UTF8
Codec ID/Info : UTF-8 Plain Text
Duration : 48 min 56 s
Bit rate : 159 b/s
Count of elements : 785
Stream size : 57.2 KiB (0%)
Language : English
Default : Yes
Forced : No





Doctor Who S11E10


Doctor Who S11E10


Doctor Who S11E10


Doctor Who S11E10


Doctor Who S11E10

All episodes