Index
# A B C D E F G H I J K L M N O P Q R S T U V W Y Z
Tags
Language
Tags

Featured TV Shows


Doctor Who S12E03

Posted By: Tavaz
720p (HD) / WEB-DL IMDb
Doctor Who S12E03

Doctor Who S12E03
WEB-DL | MKV | 1280x640 | English | H264 @ 4467 kbps | E-AC-3 @ 640 kbps | 46 min 48 s | 1.67 GiB
Subtitles: English
Genre: Drama


The Doctor is a Time Lord: a 900 year old alien with 2 hearts, part of a gifted civilization who mastered time travel. The Doctor saves planets for a living—more of a hobby actually, and the Doctor's very, very good at it.

5777df3b264541a3aea9cfd0407c4d5f.mkv (1.7 GB)



General
Unique ID : 3503366055051371707210194025234633389 (0x2A2B94847B6E0B282C16D6D861112AD)
Complete name : ./5777df3b264541a3aea9cfd0407c4d5f.mkv
Format : Matroska
Format version : Version 4 / Version 2
File size : 1.67 GiB
Duration : 46 min 48 s
Overall bit rate : 5 110 kb/s
Encoded date : UTC 2020-01-13 00:10:30
Writing application : mkvmerge v19.0.0 ('Brave Captain') 64-bit
Writing library : libebml v1.3.5 + libmatroska v1.4.8

Video
ID : 1
Format : AVC
Format/Info : Advanced Video Codec
Format profile : High@L3.1
Format settings : CABAC / 4 Ref Frames
Format settings, CABAC : Yes
Format settings, RefFrames : 4 frames
Codec ID : V_MPEG4/ISO/AVC
Duration : 46 min 48 s
Bit rate mode : Constant
Bit rate : 4 468 kb/s
Nominal bit rate : 6 000 kb/s
Width : 1 280 pixels
Height : 640 pixels
Display aspect ratio : 2.000
Frame rate mode : Constant
Frame rate : 25.000 FPS
Color space : YUV
Chroma subsampling : 4:2:0
Bit depth : 8 bits
Scan type : Progressive
Bits/(Pixel*Frame) : 0.218
Stream size : 1.46 GiB (87%)
Default : Yes
Forced : No
Color range : Limited
Color primaries : BT.709
Transfer characteristics : BT.709
Matrix coefficients : BT.709

Audio
ID : 2
Format : E-AC-3
Format/Info : Enhanced Audio Coding 3
Format settings, Endianness : Big
Codec ID : A_EAC3
Duration : 46 min 48 s
Bit rate mode : Constant
Bit rate : 640 kb/s
Channel(s) : 6 channels
Channel positions : Front: L C R, Side: L R, LFE
Sampling rate : 48.0 kHz
Frame rate : 187.500 FPS (256 SPF)
Compression mode : Lossy
Stream size : 214 MiB (13%)
Language : English
Service kind : Complete Main
Default : Yes
Forced : No

Text
ID : 3
Format : UTF-8
Codec ID : S_TEXT/UTF8
Codec ID/Info : UTF-8 Plain Text
Duration : 45 min 55 s
Bit rate : 91 b/s
Count of elements : 1036
Stream size : 30.6 KiB (0%)
Title : SDH
Language : English
Default : No
Forced : No





Doctor Who S12E03


Doctor Who S12E03


Doctor Who S12E03


Doctor Who S12E03


Doctor Who S12E03

All episodes