Index
# A B C D E F G H I J K L M N O P Q R S T U V W Y Z
Tags
Language
Tags

Featured TV Shows


Doctor Who S12E06

Posted By: Tavaz
720p (HD) / WEBRip IMDb
Doctor Who S12E06

Doctor Who S12E06
WEBRip | MKV | 1280x720 | Français / English | H264 @ 1967 kbps | AAC @ 96 kbps | 49 min 59 s | 807 MiB
Subtitles: Français
Genre: Drama


The Doctor is a Time Lord: a 900 year old alien with 2 hearts, part of a gifted civilization who mastered time travel. The Doctor saves planets for a living—more of a hobby actually, and the Doctor's very, very good at it.

71e9df945afc4de78a730b3e93af15f4.mkv (807.5 MB)



General
Unique ID : 221132167025034538536254535084929122789 (0xA65C81973EE27F406AF43795C7B301E5)
Complete name : ./71e9df945afc4de78a730b3e93af15f4.mkv
Format : Matroska
Format version : Version 4 / Version 2
File size : 807 MiB
Duration : 49 min 59 s
Overall bit rate : 2 259 kb/s
Encoded date : UTC 2020-07-25 11:14:14
Writing application : mkvmerge v48.0.0 ('Fortress Around Your Heart') 64-bit
Writing library : libebml v1.4.0 + libmatroska v1.6.0

Video
ID : 1
Format : AVC
Format/Info : Advanced Video Codec
Format profile : High@L3.1
Format settings : CABAC / 2 Ref Frames
Format settings, CABAC : Yes
Format settings, RefFrames : 2 frames
Format settings, GOP : M=1, N=50
Codec ID : V_MPEG4/ISO/AVC
Duration : 49 min 59 s
Bit rate : 1 967 kb/s
Width : 1 280 pixels
Height : 720 pixels
Display aspect ratio : 16:9
Frame rate mode : Constant
Frame rate : 25.000 FPS
Color space : YUV
Chroma subsampling : 4:2:0
Bit depth : 8 bits
Scan type : Progressive
Bits/(Pixel*Frame) : 0.085
Stream size : 703 MiB (87%)
Default : Yes
Forced : No
Color range : Limited
Color primaries : BT.709
Transfer characteristics : BT.709
Matrix coefficients : BT.709

Audio #1
ID : 2
Format : AAC
Format/Info : Advanced Audio Codec
Format profile : LC
Codec ID : A_AAC-2
Duration : 49 min 59 s
Bit rate : 96.0 kb/s
Channel(s) : 2 channels
Channel positions : Front: L R
Sampling rate : 48.0 kHz
Frame rate : 46.875 FPS (1024 SPF)
Compression mode : Lossy
Stream size : 34.3 MiB (4%)
Title : French
Language : French
Default : Yes
Forced : No

Audio #2
ID : 3
Format : AAC
Format/Info : Advanced Audio Codec
Format profile : LC
Codec ID : A_AAC-2
Duration : 49 min 59 s
Bit rate : 192 kb/s
Channel(s) : 2 channels
Channel positions : Front: L R
Sampling rate : 48.0 kHz
Frame rate : 46.875 FPS (1024 SPF)
Compression mode : Lossy
Stream size : 68.7 MiB (9%)
Title : English
Language : English
Default : No
Forced : No

Text
ID : 4
Format : UTF-8
Codec ID : S_TEXT/UTF8
Codec ID/Info : UTF-8 Plain Text
Duration : 49 min 16 s
Bit rate : 64 b/s
Count of elements : 841
Stream size : 23.3 KiB (0%)
Title : French
Language : French
Default : No
Forced : No





Doctor Who S12E06


Doctor Who S12E06


Doctor Who S12E06


Doctor Who S12E06


Doctor Who S12E06

All episodes