Index
# A B C D E F G H I J K L M N O P Q R S T U V W Y Z
Tags
Language
Tags

Featured TV Shows


Doctor Who S12E07

Posted By: Tavaz
1080p (FullHD) / BDRip IMDb
Doctor Who S12E07

Doctor Who S12E07
BDRip | MKV | 1920x960 | English | H264 @ 11800 kbps | DTS | 49 min 14 s | 4.72 GiB
Subtitles: English
Genre: Drama


The Doctor is a Time Lord: a 900 year old alien with 2 hearts, part of a gifted civilization who mastered time travel. The Doctor saves planets for a living—more of a hobby actually, and the Doctor's very, very good at it.

79d933e19bd29d47274c5abc32910459.mkv (4.7 GB)



General
Unique ID : 213033615821499145241255531945373350043 (0xA044C8304FAE07EC08D79A059982389B)
Complete name : ./79d933e19bd29d47274c5abc32910459.mkv
Format : Matroska
Format version : Version 4 / Version 2
File size : 4.72 GiB
Duration : 49 min 14 s
Overall bit rate : 13.7 Mb/s
Writing application : mkvmerge v44.0.0 ('Domino') 64-bit
Writing library : libebml v1.3.10 + libmatroska v1.5.2

Video
ID : 1
Format : AVC
Format/Info : Advanced Video Codec
Format profile : High@L4.1
Format settings : CABAC / 4 Ref Frames
Format settings, CABAC : Yes
Format settings, RefFrames : 4 frames
Codec ID : V_MPEG4/ISO/AVC
Duration : 49 min 14 s
Bit rate : 11.8 Mb/s
Width : 1 920 pixels
Height : 960 pixels
Display aspect ratio : 2.000
Frame rate mode : Constant
Frame rate : 25.000 FPS
Color space : YUV
Chroma subsampling : 4:2:0
Bit depth : 8 bits
Scan type : Progressive
Bits/(Pixel*Frame) : 0.256
Stream size : 4.06 GiB (86%)
Writing library : x264 core 159 r2991 1771b55
Encoding settings : cabac=1 / ref=4 / deblock=1:-3:-3 / analyse=0x3:0x133 / me=umh / subme=9 / psy=1 / psy_rd=1.00:0.00 / mixed_ref=1 / me_range=32 / chroma_me=1 / trellis=2 / 8x8dct=1 / cqm=0 / deadzone=21,11 / fast_pskip=0 / chroma_qp_offset=-2 / threads=30 / lookahead_threads=2 / sliced_threads=0 / nr=0 / decimate=0 / interlaced=0 / bluray_compat=0 / constrained_intra=0 / bframes=3 / b_pyramid=2 / b_adapt=2 / b_bias=0 / direct=3 / weightb=1 / open_gop=0 / weightp=2 / keyint=250 / keyint_min=25 / scenecut=40 / intra_refresh=0 / rc=crf / mbtree=0 / crf=17.0 / qcomp=0.60 / qpmin=0 / qpmax=69 / qpstep=4 / ip_ratio=1.40 / pb_ratio=1.30 / aq=3:0.80
Default : Yes
Forced : No
Color range : Limited
Matrix coefficients : BT.709

Audio
ID : 2
Format : DTS
Format/Info : Digital Theater Systems
Format profile : MA / Core
Mode : 16
Format settings, Endianness : Big
Codec ID : A_DTS
Duration : 49 min 14 s
Bit rate mode : Variable / Constant
Bit rate : 1 920 kb/s / 1 509 kb/s
Channel(s) : 6 channels
Channel positions : Front: L C R, Side: L R, LFE
Sampling rate : 48.0 kHz
Frame rate : 93.750 FPS (512 SPF)
Bit depth : 16 bits
Compression mode : Lossless / Lossy
Stream size : 668 MiB (14%)
Title : DTS-HD MA 5.1
Language : English
Default : Yes
Forced : No

Text
ID : 3
Format : PGS
Muxing mode : zlib
Codec ID : S_HDMV/PGS
Codec ID/Info : Picture based subtitle format used on BDs/HD-DVDs
Duration : 49 min 2 s
Bit rate : 52.4 kb/s
Count of elements : 1870
Stream size : 18.4 MiB (0%)
Title : English SDH
Language : English
Default : No
Forced : No

Menu
00:00:00.000 : en:Chapter 01
00:03:10.600 : en:Chapter 02
00:06:27.640 : en:Chapter 03
00:09:02.520 : en:Chapter 04
00:16:16.640 : en:Chapter 05
00:22:55.400 : en:Chapter 06
00:26:06.400 : en:Chapter 07
00:31:16.000 : en:Chapter 08
00:36:44.000 : en:Chapter 09
00:40:29.040 : en:Chapter 10
00:42:39.760 : en:Chapter 11
00:48:28.200 : en:Chapter 12





Doctor Who S12E07


Doctor Who S12E07


Doctor Who S12E07


Doctor Who S12E07


Doctor Who S12E07

All episodes