Index
# A B C D E F G H I J K L M N O P Q R S T U V W Y Z
Tags
Language
Tags

Featured TV Shows


Doctor Who S12E10

Posted By: Tavaz
720p (HD) / BDRip IMDb
Doctor Who S12E10

Doctor Who S12E10
BDRip | MKV | 1280x640 | English | H264 @ 4947 kbps | AC-3 @ 640 kbps | 1 h 5 min | 2.58 GiB
Subtitles: English
Genre: Drama


The Doctor is a Time Lord: a 900 year old alien with 2 hearts, part of a gifted civilization who mastered time travel. The Doctor saves planets for a living—more of a hobby actually, and the Doctor's very, very good at it.

5415366c0d2fa2e5b23a2ef840c1693f.mkv (2.6 GB)



General
Unique ID : 153747600478476164791901875831708744114 (0x73AAB5F49FC815B76554C27BC4FE79B2)
Complete name : ./5415366c0d2fa2e5b23a2ef840c1693f.mkv
Format : Matroska
Format version : Version 4 / Version 2
File size : 2.58 GiB
Duration : 1 h 5 min
Overall bit rate : 5 603 kb/s
Writing application : mkvmerge v44.0.0 ('Domino') 64-bit
Writing library : libebml v1.3.10 + libmatroska v1.5.2

Video
ID : 1
Format : AVC
Format/Info : Advanced Video Codec
Format profile : High@L4.1
Format settings : CABAC / 8 Ref Frames
Format settings, CABAC : Yes
Format settings, RefFrames : 8 frames
Codec ID : V_MPEG4/ISO/AVC
Duration : 1 h 5 min
Bit rate : 4 948 kb/s
Width : 1 280 pixels
Height : 640 pixels
Display aspect ratio : 2.000
Frame rate mode : Constant
Frame rate : 25.000 FPS
Color space : YUV
Chroma subsampling : 4:2:0
Bit depth : 8 bits
Scan type : Progressive
Bits/(Pixel*Frame) : 0.242
Stream size : 2.27 GiB (88%)
Writing library : x264 core 158 r2984 3759fcb
Encoding settings : cabac=1 / ref=8 / deblock=1:-3:-3 / analyse=0x3:0x133 / me=umh / subme=9 / psy=1 / psy_rd=1.00:0.00 / mixed_ref=1 / me_range=24 / chroma_me=1 / trellis=2 / 8x8dct=1 / cqm=0 / deadzone=21,11 / fast_pskip=0 / chroma_qp_offset=-2 / threads=20 / lookahead_threads=1 / sliced_threads=0 / nr=0 / decimate=0 / interlaced=0 / bluray_compat=0 / constrained_intra=0 / bframes=3 / b_pyramid=2 / b_adapt=2 / b_bias=0 / direct=3 / weightb=1 / open_gop=0 / weightp=2 / keyint=250 / keyint_min=25 / scenecut=40 / intra_refresh=0 / rc=crf / mbtree=0 / crf=17.0 / qcomp=0.60 / qpmin=0 / qpmax=69 / qpstep=4 / ip_ratio=1.40 / pb_ratio=1.30 / aq=3:0.80
Default : Yes
Forced : No
Color range : Limited
Matrix coefficients : BT.709

Audio
ID : 2
Format : AC-3
Format/Info : Audio Coding 3
Format settings, Endianness : Big
Codec ID : A_AC3
Duration : 1 h 5 min
Bit rate mode : Constant
Bit rate : 640 kb/s
Channel(s) : 6 channels
Channel positions : Front: L C R, Side: L R, LFE
Sampling rate : 48.0 kHz
Frame rate : 31.250 FPS (1536 SPF)
Bit depth : 16 bits
Compression mode : Lossy
Stream size : 301 MiB (11%)
Title : AC-3 5.1
Language : English
Service kind : Complete Main
Default : Yes
Forced : No

Text
ID : 3
Format : PGS
Muxing mode : zlib
Codec ID : S_HDMV/PGS
Codec ID/Info : Picture based subtitle format used on BDs/HD-DVDs
Duration : 1 h 4 min
Bit rate : 48.6 kb/s
Count of elements : 2292
Stream size : 22.6 MiB (1%)
Title : English SDH
Language : English
Default : No
Forced : No

Menu
00:00:00.000 : en:Chapter 01
00:05:13.920 : en:Chapter 02
00:09:14.960 : en:Chapter 03
00:15:04.920 : en:Chapter 04
00:20:13.080 : en:Chapter 05
00:27:21.640 : en:Chapter 06
00:35:19.720 : en:Chapter 07
00:40:24.440 : en:Chapter 08
00:44:56.280 : en:Chapter 09
00:51:39.480 : en:Chapter 10
00:57:05.440 : en:Chapter 11
01:05:04.280 : en:Chapter 12





Doctor Who S12E10


Doctor Who S12E10


Doctor Who S12E10


Doctor Who S12E10


Doctor Who S12E10

All episodes