Index
# A B C D E F G H I J K L M N O P Q R S T U V W X Y Z
Tags
Language
Tags
May 2024
Su Mo Tu We Th Fr Sa
28 29 30 1 2 3 4
5 6 7 8 9 10 11
12 13 14 15 16 17 18
19 20 21 22 23 24 25
26 27 28 29 30 31 1

Featured TV Shows


Dogs of Berlin S01E03

Posted By: Tavaz
SD / WEBRip IMDb
Dogs of Berlin S01E03

Dogs of Berlin S01E03
WEBRip | MKV | 720x360 | German | H264 @ 920 kbps | AAC @ 124 kbps | 51 min 12 s | 383 MiB
Subtitles: German

A politically sensitive murder forces two disparate detectives into a battle with the Berlin underworld and a confrontation with their own corruption.

b6a3e4cbe9d248dda53de144a1672e11.mkv (383.4 MB)



General
Unique ID : 41772002110865444513458639498162946748 (0x1F6CFEB65E800B1F2BEB54074DDB42BC)
Complete name : ./b6a3e4cbe9d248dda53de144a1672e11.mkv
Format : Matroska
Format version : Version 4 / Version 2
File size : 383 MiB
Duration : 51 min 12 s
Overall bit rate : 1 047 kb/s
Encoded date : UTC 2018-12-10 16:53:56
Writing application : mkvmerge v26.0.0 ('In The Game') 64-bit
Writing library : libebml v1.3.6 + libmatroska v1.4.9

Video
ID : 1
Format : AVC
Format/Info : Advanced Video Codec
Format profile : High@L3.1
Format settings : CABAC / 16 Ref Frames
Format settings, CABAC : Yes
Format settings, RefFrames : 16 frames
Codec ID : V_MPEG4/ISO/AVC
Duration : 51 min 12 s
Bit rate : 920 kb/s
Width : 720 pixels
Height : 360 pixels
Display aspect ratio : 2.000
Frame rate mode : Constant
Frame rate : 25.000 FPS
Color space : YUV
Chroma subsampling : 4:2:0
Bit depth : 8 bits
Scan type : Progressive
Bits/(Pixel*Frame) : 0.142
Stream size : 337 MiB (88%)
Writing library : x264 core 157 r2935 545de2f
Encoding settings : cabac=1 / ref=16 / deblock=1:0:0 / analyse=0x3:0x133 / me=umh / subme=10 / psy=1 / psy_rd=1.00:0.00 / mixed_ref=1 / me_range=24 / chroma_me=1 / trellis=2 / 8x8dct=1 / cqm=0 / deadzone=21,11 / fast_pskip=0 / chroma_qp_offset=-2 / threads=11 / lookahead_threads=1 / sliced_threads=0 / nr=0 / decimate=0 / interlaced=0 / bluray_compat=0 / constrained_intra=0 / bframes=8 / b_pyramid=2 / b_adapt=2 / b_bias=0 / direct=3 / weightb=1 / open_gop=0 / weightp=2 / keyint=250 / keyint_min=25 / scenecut=40 / intra_refresh=0 / rc_lookahead=60 / rc=crf / mbtree=1 / crf=17.0 / qcomp=0.60 / qpmin=0 / qpmax=69 / qpstep=4 / ip_ratio=1.40 / aq=2:1.00
Default : Yes
Forced : No
Color range : Limited
Color primaries : BT.709
Transfer characteristics : BT.709
Matrix coefficients : BT.709

Audio
ID : 2
Format : AAC
Format/Info : Advanced Audio Codec
Format profile : LC
Codec ID : A_AAC-2
Duration : 50 min 56 s
Bit rate : 125 kb/s
Channel(s) : 2 channels
Channel positions : Front: L R
Sampling rate : 48.0 kHz
Frame rate : 46.875 FPS (1024 SPF)
Compression mode : Lossy
Delay relative to video : 9 ms
Stream size : 45.4 MiB (12%)
Language : German
Default : Yes
Forced : No

Text
ID : 3
Format : UTF-8
Codec ID : S_TEXT/UTF8
Codec ID/Info : UTF-8 Plain Text
Duration : 49 min 7 s
Bit rate : 73 b/s
Count of elements : 709
Stream size : 26.3 KiB (0%)
Language : German
Default : No
Forced : No





Dogs of Berlin S01E03


Dogs of Berlin S01E03


Dogs of Berlin S01E03


Dogs of Berlin S01E03


Dogs of Berlin S01E03

All episodes