Please register here if you want to download anything!

If domain in your address bar is different from the list below
PLEASE LEAVE THAT SITE IMMEDIATELY
❗IT'S A DANGEROUS FAKE❗



Spicy Magazines for Men! ;-)

Featured TV Shows


Doom Patrol S01E203

Posted By: Tavaz
Doom Patrol S01E203

Doom Patrol S01E203
MKV | 1920x1080 | English | H264 @ 4968 kbps | AAC @ 128 kbps | 52 min 58 s | 1.89 GiB
Subtitles: English

The Doom Patrol’s members each suffered horrible accidents that gave them superhuman abilities — but also left them scarred and disfigured. Traumatized and downtrodden, the team found purpose through The Chief, who brought them together to investigate the weirdest phenomena in existence — and to protect Earth from what they find.

Doom Patrol - S01E02 - Donkey Patrol WEBDL-720p.mkv (1.3 GB)
Doom Patrol - S01E03 - Puppet Patrol WEBDL-1080p.mkv (1.9 GB)



General
Unique ID : 306910997382646824898843339157311551169 (0xE6E4E8737B1E795CF52D2612468376C1)
Complete name : ./Doom Patrol - S01E03 - Puppet Patrol WEBDL-1080p.mkv
Format : Matroska
Format version : Version 4 / Version 2
File size : 1.89 GiB
Duration : 52 min 58 s
Overall bit rate : 5 098 kb/s
Encoded date : UTC 2019-03-02 12:50:09
Writing application : mkvmerge v30.1.0 ('Forever And More') 64-bit
Writing library : libebml v1.3.6 + libmatroska v1.4.9

Video
ID : 1
Format : AVC
Format/Info : Advanced Video Codec
Format profile : Baseline@L4
Format settings : 4 Ref Frames
Format settings, CABAC : No
Format settings, RefFrames : 4 frames
Format settings, GOP : M=1, N=48
Codec ID : V_MPEG4/ISO/AVC
Duration : 52 min 57 s
Bit rate : 4 969 kb/s
Width : 1 920 pixels
Height : 1 080 pixels
Display aspect ratio : 16:9
Frame rate mode : Constant
Frame rate : 24.000 FPS
Original frame rate : 23.976 (24000/1001) FPS
Color space : YUV
Chroma subsampling : 4:2:0
Bit depth : 8 bits
Scan type : Progressive
Bits/(Pixel*Frame) : 0.100
Stream size : 1.84 GiB (97%)
Writing library : Zencoder Video Encoding System
Language : English
Default : Yes
Forced : No
Color range : Limited
Color primaries : BT.709
Transfer characteristics : BT.709
Matrix coefficients : BT.709

Audio
ID : 2
Format : AAC
Format/Info : Advanced Audio Codec
Format profile : LC
Codec ID : A_AAC-2
Duration : 52 min 58 s
Bit rate : 128 kb/s
Channel(s) : 2 channels
Channel positions : Front: L R
Sampling rate : 48.0 kHz
Frame rate : 46.875 FPS (1024 SPF)
Compression mode : Lossy
Stream size : 48.5 MiB (3%)
Language : English
Default : Yes
Forced : No

Text
ID : 3
Format : UTF-8
Codec ID : S_TEXT/UTF8
Codec ID/Info : UTF-8 Plain Text
Duration : 51 min 27 s
Bit rate : 64 b/s
Count of elements : 812
Stream size : 24.3 KiB (0%)
Title : en
Language : English
Default : No
Forced : No





Doom Patrol S01E203


Doom Patrol S01E203


Doom Patrol S01E203


Doom Patrol S01E203


Doom Patrol S01E203

All episodes