Please register here if you want to download anything!

If domain in your address bar is different from the list below
PLEASE LEAVE THAT SITE IMMEDIATELY
❗IT'S A DANGEROUS FAKE❗



Spicy Magazines for Men! ;-)

Featured TV Shows


Doom Patrol S01E05

Posted By: Tavaz
Doom Patrol S01E05

Doom Patrol S01E05
MOV | 1280x720 | English | H264 @ 1476 kbps | AAC @ 196 kbps | 55 min 58 s | 671 MiB


The Doom Patrol’s members each suffered horrible accidents that gave them superhuman abilities — but also left them scarred and disfigured. Traumatized and downtrodden, the team found purpose through The Chief, who brought them together to investigate the weirdest phenomena in existence — and to protect Earth from what they find.

Doom Patrol S01E05 - Paw Patrol (Pfotenpatrouille) (German sub.).mp4 (671.2 MB)



General
Complete name : ./Doom Patrol S01E05 - Paw Patrol (Pfotenpatrouille) (German sub.)/Doom Patrol S01E05 - Paw Patrol (Pfotenpatrouille) (German sub.).mp4
Format : MPEG-4
Format profile : Base Media
Codec ID : isom (isom/iso2/avc1/mp41)
File size : 671 MiB
Duration : 55 min 58 s
Overall bit rate : 1 676 kb/s
Movie name : Doom.Patrol.S01E05.WEBRip.x264-ION10
Writing application : Lavf57.71.100
Comment : Doom.Patrol.S01E05.WEBRip.x264-ION10

Video
ID : 1
Format : AVC
Format/Info : Advanced Video Codec
Format profile : Main@L3.1
Format settings : CABAC / 1 Ref Frames
Format settings, CABAC : Yes
Format settings, RefFrames : 1 frame
Format settings, GOP : M=1, N=25
Codec ID : avc1
Codec ID/Info : Advanced Video Coding
Duration : 55 min 58 s
Duration_FirstFrame : 42 ms
Bit rate : 1 477 kb/s
Width : 1 280 pixels
Height : 720 pixels
Display aspect ratio : 16:9
Frame rate mode : Constant
Frame rate : 24.000 FPS
Color space : YUV
Chroma subsampling : 4:2:0
Bit depth : 8 bits
Scan type : Progressive
Bits/(Pixel*Frame) : 0.067
Stream size : 591 MiB (88%)
Language : English

Audio
ID : 2
Format : AAC
Format/Info : Advanced Audio Codec
Format profile : LC
Codec ID : mp4a-40-2
Duration : 55 min 58 s
Bit rate mode : Constant
Bit rate : 196 kb/s
Channel(s) : 2 channels
Channel positions : Front: L R
Sampling rate : 48.0 kHz
Frame rate : 46.875 FPS (1024 SPF)
Compression mode : Lossy
Stream size : 78.5 MiB (12%)
Language : English
Default : Yes
Alternate group : 1





Doom Patrol S01E05


Doom Patrol S01E05


Doom Patrol S01E05


Doom Patrol S01E05


Doom Patrol S01E05

All episodes