Featured TV Shows


Doom Patrol S02E01

Posted By: Tavaz
720p (HD) / WEBRip IMDb
Doom Patrol S02E01

Doom Patrol S02E01
WEBRip | MKV | 1920x1080 | English | H264 @ 8245 kbps | E-AC-3 @ 640 kbps | 53 min 51 s | 3.34 GiB
Subtitles: Nederlands


The Doom Patrol’s members each suffered horrible accidents that gave them superhuman abilities — but also left them scarred and disfigured. Traumatized and downtrodden, the team found purpose through The Chief, who brought them together to investigate the weirdest phenomena in existence — and to protect Earth from what they find.

Doom-Patrol-S02E01.mkv (3.3 GB)



General
Unique ID : 226950936744281313753494296478733994892 (0xAABD291669E20DB01A2EBAF1D46E8B8C)
Complete name : ./Doom-Patrol-S02E01.mkv
Format : Matroska
Format version : Version 4 / Version 2
File size : 3.34 GiB
Duration : 53 min 51 s
Overall bit rate mode : Variable
Overall bit rate : 8 888 kb/s
Encoded date : UTC 2020-06-27 10:06:21
Writing application : mkvmerge v40.0.0 ('Old Town Road + Pony') 64-bit
Writing library : libebml v1.3.9 + libmatroska v1.5.2

Video
ID : 1
Format : AVC
Format/Info : Advanced Video Codec
Format profile : High@L4
Format settings : CABAC / 4 Ref Frames
Format settings, CABAC : Yes
Format settings, RefFrames : 4 frames
Codec ID : V_MPEG4/ISO/AVC
Duration : 53 min 51 s
Bit rate mode : Variable
Bit rate : 8 246 kb/s
Maximum bit rate : 12.4 Mb/s
Width : 1 920 pixels
Height : 1 080 pixels
Display aspect ratio : 16:9
Frame rate mode : Constant
Frame rate : 23.976 (24000/1001) FPS
Color space : YUV
Chroma subsampling : 4:2:0
Bit depth : 8 bits
Scan type : Progressive
Bits/(Pixel*Frame) : 0.166
Stream size : 3.10 GiB (93%)
Default : Yes
Forced : No

Audio
ID : 2
Format : E-AC-3
Format/Info : Enhanced Audio Coding 3
Format settings, Endianness : Big
Codec ID : A_EAC3
Duration : 53 min 51 s
Bit rate mode : Constant
Bit rate : 640 kb/s
Channel(s) : 6 channels
Channel positions : Front: L C R, Side: L R, LFE
Sampling rate : 48.0 kHz
Frame rate : 187.500 FPS (256 SPF)
Compression mode : Lossy
Delay relative to video : 25 ms
Stream size : 247 MiB (7%)
Language : English
Service kind : Complete Main
Default : Yes
Forced : No

Text
ID : 3
Format : UTF-8
Codec ID : S_TEXT/UTF8
Codec ID/Info : UTF-8 Plain Text
Duration : 51 min 0 s
Bit rate : 57 b/s
Count of elements : 749
Stream size : 21.3 KiB (0%)
Language : Dutch
Default : Yes
Forced : No





Doom Patrol S02E01


Doom Patrol S02E01


Doom Patrol S02E01


Doom Patrol S02E01


Doom Patrol S02E01

All episodes