Featured TV Shows


Doom Patrol S02E08

Posted By: Tavaz
1080p (FullHD) / WEBRip IMDb
Doom Patrol S02E08

Doom Patrol S02E08
WEBRip | MKV | 1920x1080 | English | H264 @ 8242 kbps | AC-3 @ 384 kbps | 53 min 2 s | 3.20 GiB
Subtitles: English


The Doom Patrol’s members each suffered horrible accidents that gave them superhuman abilities — but also left them scarred and disfigured. Traumatized and downtrodden, the team found purpose through The Chief, who brought them together to investigate the weirdest phenomena in existence — and to protect Earth from what they find.

36d49114f37d4818b8ba8025fd807020.mkv (3.2 GB)



General
Unique ID : 2704438790825884510873009600107366723 (0x208DB2085B7864E3F7464F09E9FC943)
Complete name : ./36d49114f37d4818b8ba8025fd807020.mkv
Format : Matroska
Format version : Version 4 / Version 2
File size : 3.20 GiB
Duration : 53 min 2 s
Overall bit rate mode : Variable
Overall bit rate : 8 628 kb/s
Writing application : mkvmerge v48.0.0 ('Fortress Around Your Heart') 64-bit
Writing library : libebml v1.4.0 + libmatroska v1.6.0

Video
ID : 1
Format : AVC
Format/Info : Advanced Video Codec
Format profile : High@L4
Format settings : CABAC / 4 Ref Frames
Format settings, CABAC : Yes
Format settings, RefFrames : 4 frames
Codec ID : V_MPEG4/ISO/AVC
Duration : 53 min 2 s
Bit rate mode : Variable
Bit rate : 8 242 kb/s
Maximum bit rate : 12.4 Mb/s
Width : 1 920 pixels
Height : 1 080 pixels
Display aspect ratio : 16:9
Frame rate mode : Constant
Frame rate : 23.976 (24000/1001) FPS
Color space : YUV
Chroma subsampling : 4:2:0
Bit depth : 8 bits
Scan type : Progressive
Bits/(Pixel*Frame) : 0.166
Stream size : 3.05 GiB (96%)
Default : Yes
Forced : No

Audio
ID : 2
Format : AC-3
Format/Info : Audio Coding 3
Format settings, Endianness : Big
Codec ID : A_AC3
Duration : 53 min 2 s
Bit rate mode : Constant
Bit rate : 384 kb/s
Channel(s) : 6 channels
Channel positions : Front: L C R, Side: L R, LFE
Sampling rate : 48.0 kHz
Frame rate : 31.250 FPS (1536 SPF)
Bit depth : 16 bits
Compression mode : Lossy
Stream size : 146 MiB (4%)
Language : English
Service kind : Complete Main
Default : Yes
Forced : No

Text
ID : 3
Format : UTF-8
Codec ID : S_TEXT/UTF8
Codec ID/Info : UTF-8 Plain Text
Duration : 50 min 41 s
Bit rate : 54 b/s
Count of elements : 745
Stream size : 20.3 KiB (0%)
Language : English
Default : No
Forced : No





Doom Patrol S02E08


Doom Patrol S02E08


Doom Patrol S02E08


Doom Patrol S02E08


Doom Patrol S02E08

All episodes