Featured TV Shows


Doom Patrol S02E08

Posted By: Tavaz
720p (HD) / WEBRip IMDb
Doom Patrol S02E08

Doom Patrol S02E08
WEBRip | MKV | 1280x720 | English | H264 @ 3394 kbps | AC-3 @ 384 kbps | 53 min 2 s | 1.40 GiB
Subtitles: English


The Doom Patrol’s members each suffered horrible accidents that gave them superhuman abilities — but also left them scarred and disfigured. Traumatized and downtrodden, the team found purpose through The Chief, who brought them together to investigate the weirdest phenomena in existence — and to protect Earth from what they find.

898bb6d251c9409cb9957c76b533f59b.mkv (1.4 GB)



General
Unique ID : 109177877434733224022814409357758272147 (0x5222E4F392860189CF250070B2879293)
Complete name : ./898bb6d251c9409cb9957c76b533f59b.mkv
Format : Matroska
Format version : Version 4 / Version 2
File size : 1.40 GiB
Duration : 53 min 2 s
Overall bit rate mode : Variable
Overall bit rate : 3 780 kb/s
Writing application : mkvmerge v48.0.0 ('Fortress Around Your Heart') 64-bit
Writing library : libebml v1.4.0 + libmatroska v1.6.0

Video
ID : 1
Format : AVC
Format/Info : Advanced Video Codec
Format profile : Main@L3.1
Format settings : CABAC / 4 Ref Frames
Format settings, CABAC : Yes
Format settings, RefFrames : 4 frames
Codec ID : V_MPEG4/ISO/AVC
Duration : 53 min 2 s
Bit rate mode : Variable
Bit rate : 3 394 kb/s
Maximum bit rate : 5 100 kb/s
Width : 1 280 pixels
Height : 720 pixels
Display aspect ratio : 16:9
Frame rate mode : Constant
Frame rate : 23.976 (24000/1001) FPS
Color space : YUV
Chroma subsampling : 4:2:0
Bit depth : 8 bits
Scan type : Progressive
Bits/(Pixel*Frame) : 0.154
Stream size : 1.26 GiB (90%)
Default : Yes
Forced : No

Audio
ID : 2
Format : AC-3
Format/Info : Audio Coding 3
Format settings, Endianness : Big
Codec ID : A_AC3
Duration : 53 min 2 s
Bit rate mode : Constant
Bit rate : 384 kb/s
Channel(s) : 6 channels
Channel positions : Front: L C R, Side: L R, LFE
Sampling rate : 48.0 kHz
Frame rate : 31.250 FPS (1536 SPF)
Bit depth : 16 bits
Compression mode : Lossy
Stream size : 146 MiB (10%)
Language : English
Service kind : Complete Main
Default : Yes
Forced : No

Text
ID : 3
Format : UTF-8
Codec ID : S_TEXT/UTF8
Codec ID/Info : UTF-8 Plain Text
Duration : 50 min 41 s
Bit rate : 54 b/s
Count of elements : 745
Stream size : 20.3 KiB (0%)
Language : English
Default : No
Forced : No





Doom Patrol S02E08


Doom Patrol S02E08


Doom Patrol S02E08


Doom Patrol S02E08


Doom Patrol S02E08

All episodes