Featured TV Shows


Doom Patrol S02E09

Posted By: Tavaz
1080p (FullHD) / WEBRip IMDb
Doom Patrol S02E09

Doom Patrol S02E09
WEBRip | MKV | 1920x1080 | English | H264 @ 8244 kbps | AC-3 @ 384 kbps | 44 min 53 s | 2.71 GiB
Subtitles: English


The Doom Patrol’s members each suffered horrible accidents that gave them superhuman abilities — but also left them scarred and disfigured. Traumatized and downtrodden, the team found purpose through The Chief, who brought them together to investigate the weirdest phenomena in existence — and to protect Earth from what they find.

9fcc563f73734667a5ebca5a052ac4ed.mkv (2.7 GB)



General
Unique ID : 117677805889645627529232387268830122687 (0x5887EBC7A80D5BA70F34FB70157552BF)
Complete name : ./9fcc563f73734667a5ebca5a052ac4ed.mkv
Format : Matroska
Format version : Version 4 / Version 2
File size : 2.71 GiB
Duration : 44 min 53 s
Overall bit rate mode : Variable
Overall bit rate : 8 631 kb/s
Writing application : mkvmerge v48.0.0 ('Fortress Around Your Heart') 64-bit
Writing library : libebml v1.4.0 + libmatroska v1.6.0

Video
ID : 1
Format : AVC
Format/Info : Advanced Video Codec
Format profile : High@L4
Format settings : CABAC / 4 Ref Frames
Format settings, CABAC : Yes
Format settings, RefFrames : 4 frames
Codec ID : V_MPEG4/ISO/AVC
Duration : 44 min 53 s
Bit rate mode : Variable
Bit rate : 8 245 kb/s
Maximum bit rate : 12.4 Mb/s
Width : 1 920 pixels
Height : 1 080 pixels
Display aspect ratio : 16:9
Frame rate mode : Constant
Frame rate : 23.976 (24000/1001) FPS
Color space : YUV
Chroma subsampling : 4:2:0
Bit depth : 8 bits
Scan type : Progressive
Bits/(Pixel*Frame) : 0.166
Stream size : 2.59 GiB (96%)
Default : Yes
Forced : No

Audio
ID : 2
Format : AC-3
Format/Info : Audio Coding 3
Format settings, Endianness : Big
Codec ID : A_AC3
Duration : 44 min 53 s
Bit rate mode : Constant
Bit rate : 384 kb/s
Channel(s) : 6 channels
Channel positions : Front: L C R, Side: L R, LFE
Sampling rate : 48.0 kHz
Frame rate : 31.250 FPS (1536 SPF)
Bit depth : 16 bits
Compression mode : Lossy
Stream size : 123 MiB (4%)
Language : English
Service kind : Complete Main
Default : Yes
Forced : No

Text
ID : 3
Format : UTF-8
Codec ID : S_TEXT/UTF8
Codec ID/Info : UTF-8 Plain Text
Duration : 42 min 25 s
Bit rate : 67 b/s
Count of elements : 707
Stream size : 21.0 KiB (0%)
Language : English
Default : No
Forced : No





Doom Patrol S02E09


Doom Patrol S02E09


Doom Patrol S02E09


Doom Patrol S02E09


Doom Patrol S02E09

All episodes