Featured TV Shows


Dracula S01E01

Posted By: Tavaz
1080p (FullHD) / WEB-DL IMDb
Dracula S01E01

Dracula S01E01
HDTV | MKV | 1920x1080 | English | H264 @ 3382 kbps | AC-3 @ 384 kbps | 1 h 28 min | 2.37 GiB
Genre: Drama

In Transylvania in 1897, the blood-drinking Count is drawing his plans against Victorian London. And be warned: the dead travel fast.

422edaa49cd043a680404d76e9db2f05.mkv (2.4 GB)



General
Unique ID : 0 (0x0)
Complete name : ./422edaa49cd043a680404d76e9db2f05.mkv
Format : Matroska
Format version : Version 4 / Version 2
File size : 2.37 GiB
Duration : 1 h 28 min
Overall bit rate : 3 843 kb/s
Encoded date : UTC 2010-02-22 21:41:29
Writing application : no_variable_data
Writing library : no_variable_data

Video
ID : 1
Format : AVC
Format/Info : Advanced Video Codec
Format profile : High@L4
Format settings : CABAC / 4 Ref Frames
Format settings, CABAC : Yes
Format settings, RefFrames : 4 frames
Format settings, GOP : M=8, N=24
Codec ID : V_MPEG4/ISO/AVC
Duration : 1 h 28 min
Bit rate : 3 383 kb/s
Width : 1 920 pixels
Height : 1 080 pixels
Display aspect ratio : 16:9
Frame rate mode : Constant
Frame rate : 25.000 FPS
Standard : Component
Color space : YUV
Chroma subsampling : 4:2:0
Bit depth : 8 bits
Scan type : MBAFF
Scan type, store method : Interleaved fields
Scan order : Top Field First
Bits/(Pixel*Frame) : 0.065
Stream size : 2.09 GiB (88%)
Language : English
Default : Yes
Forced : No
Color range : Limited
Color primaries : BT.709
Transfer characteristics : BT.709
Matrix coefficients : BT.709

Audio
ID : 2
Format : AC-3
Format/Info : Audio Coding 3
Format settings, Endianness : Big
Codec ID : A_AC3
Duration : 1 h 28 min
Bit rate mode : Constant
Bit rate : 384 kb/s
Channel(s) : 6 channels
Channel positions : Front: L C R, Side: L R, LFE
Sampling rate : 48.0 kHz
Frame rate : 31.250 FPS (1536 SPF)
Bit depth : 16 bits
Compression mode : Lossy
Stream size : 243 MiB (10%)
Language : English
Service kind : Complete Main
Default : Yes
Forced : No





Dracula S01E01


Dracula S01E01


Dracula S01E01


Dracula S01E01


Dracula S01E01

All episodes