Featured TV Shows


Devilman: Crybaby S01E03

Posted By: Tavaz
1080p (FullHD) / BDRip IMDb
Devilman: Crybaby S01E03

Devilman: Crybaby S01E03
BDRip | MKV | 1920x1080 | English / Spanish / Spanish / French / German / Italian / Portuguese / Japanese / Japanese / Japanese | H264 @ 4764 kbps | E-AC-3 @ 128 kbps | 24 min 11 s | 1.26 GiB
Subtitles: Swedish, Turkish, Romanian, Dutch, Korean, Danish, Bulgarian, French, Norwegian, Thai, Finnish, Spanish, Greek, English, Italian, Portuguese, Chinese, German, Japanese, Hebrew, Polish, Arabic
Genre: Animation

Akira Fudo learns from his best friend Ryo Asuka that demons will revive and reclaim the world from humans. With humans hopeless against this threat, Ryo suggests combining with a demon. With this, Akira becomes Devilman, a being with the power of demon but with a human heart.

ad86904cba1947fba04ff47ccab4fa0d.mkv (1.3 GB)



General
Unique ID : 297705090336049699929150464206723360860 (0xDFF7EA30D28807C564CB79803AEC285C)
Complete name : ./ad86904cba1947fba04ff47ccab4fa0d.mkv
Format : Matroska
Format version : Version 4 / Version 2
File size : 1.26 GiB
Duration : 24 min 11 s
Overall bit rate mode : Variable
Overall bit rate : 7 474 kb/s
Encoded date : UTC 2018-06-04 22:31:39
Writing application : mkvmerge v23.0.0 ('The Bride Said No') 64-bit
Writing library : libebml v1.3.6 + libmatroska v1.4.9

Video
ID : 1
Format : AVC
Format/Info : Advanced Video Codec
Format profile : High 10@L5.1
Format settings : CABAC / 16 Ref Frames
Format settings, CABAC : Yes
Format settings, RefFrames : 16 frames
Codec ID : V_MPEG4/ISO/AVC
Duration : 24 min 11 s
Bit rate : 4 765 kb/s
Width : 1 920 pixels
Height : 1 080 pixels
Display aspect ratio : 16:9
Frame rate mode : Constant
Frame rate : 23.976 (24000/1001) FPS
Color space : YUV
Chroma subsampling : 4:2:0
Bit depth : 10 bits
Scan type : Progressive
Bits/(Pixel*Frame) : 0.096
Stream size : 825 MiB (64%)
Writing library : x264 core 155 r2901 7d0ff22
Encoding settings : cabac=1 / ref=16 / deblock=1:0:0 / analyse=0x3:0x133 / me=umh / subme=10 / psy=1 / psy_rd=1.00:0.00 / mixed_ref=1 / me_range=24 / chroma_me=1 / trellis=2 / 8x8dct=1 / cqm=0 / deadzone=21,11 / fast_pskip=1 / chroma_qp_offset=-2 / threads=12 / lookahead_threads=2 / sliced_threads=0 / nr=0 / decimate=1 / interlaced=0 / bluray_compat=0 / constrained_intra=0 / bframes=8 / b_pyramid=2 / b_adapt=2 / b_bias=0 / direct=3 / weightb=1 / open_gop=0 / weightp=2 / keyint=250 / keyint_min=23 / scenecut=40 / intra_refresh=0 / rc_lookahead=60 / rc=crf / mbtree=1 / crf=16.0 / qcomp=0.60 / qpmin=0 / qpmax=81 / qpstep=4 / ip_ratio=1.40 / aq=1:1.00
Default : Yes
Forced : No

Audio #1
ID : 2
Format : E-AC-3
Format/Info : Enhanced Audio Coding 3
Format settings, Endianness : Big
Codec ID : A_EAC3
Duration : 24 min 11 s
Bit rate mode : Constant
Bit rate : 128 kb/s
Channel(s) : 2 channels
Channel positions : Front: L R
Sampling rate : 48.0 kHz
Frame rate : 187.500 FPS (256 SPF)
Compression mode : Lossy
Stream size : 22.2 MiB (2%)
Title : English
Language : English
Service kind : Complete Main
Default : Yes
Forced : No

Audio #2
ID : 3
Format : E-AC-3
Format/Info : Enhanced Audio Coding 3
Format settings, Endianness : Big
Codec ID : A_EAC3
Duration : 24 min 11 s
Bit rate mode : Constant
Bit rate : 128 kb/s
Channel(s) : 2 channels
Channel positions : Front: L R
Sampling rate : 48.0 kHz
Frame rate : 187.500 FPS (256 SPF)
Compression mode : Lossy
Stream size : 22.2 MiB (2%)
Title : Castilian
Language : Spanish
Service kind : Complete Main
Default : No
Forced : No

Audio #3
ID : 4
Format : E-AC-3
Format/Info : Enhanced Audio Coding 3
Format settings, Endianness : Big
Codec ID : A_EAC3
Duration : 24 min 11 s
Bit rate mode : Constant
Bit rate : 128 kb/s
Channel(s) : 2 channels
Channel positions : Front: L R
Sampling rate : 48.0 kHz
Frame rate : 187.500 FPS (256 SPF)
Compression mode : Lossy
Stream size : 22.2 MiB (2%)
Title : Spanish
Language : Spanish
Service kind : Complete Main
Default : No
Forced : No

Audio #4
ID : 5
Format : E-AC-3
Format/Info : Enhanced Audio Coding 3
Format settings, Endianness : Big
Codec ID : A_EAC3
Duration : 24 min 11 s
Bit rate mode : Constant
Bit rate : 128 kb/s
Channel(s) : 2 channels
Channel positions : Front: L R
Sampling rate : 48.0 kHz
Frame rate : 187.500 FPS (256 SPF)
Compression mode : Lossy
Stream size : 22.2 MiB (2%)
Title : French
Language : French
Service kind : Complete Main
Default : No
Forced : No

Audio #5
ID : 6
Format : E-AC-3
Format/Info : Enhanced Audio Coding 3
Format settings, Endianness : Big
Codec ID : A_EAC3
Duration : 24 min 11 s
Bit rate mode : Constant
Bit rate : 128 kb/s
Channel(s) : 2 channels
Channel positions : Front: L R
Sampling rate : 48.0 kHz
Frame rate : 187.500 FPS (256 SPF)
Compression mode : Lossy
Stream size : 22.2 MiB (2%)
Title : German
Language : German
Service kind : Complete Main
Default : No
Forced : No

Audio #6
ID : 7
Format : E-AC-3
Format/Info : Enhanced Audio Coding 3
Format settings, Endianness : Big
Codec ID : A_EAC3
Duration : 24 min 11 s
Bit rate mode : Constant
Bit rate : 128 kb/s
Channel(s) : 2 channels
Channel positions : Front: L R
Sampling rate : 48.0 kHz
Frame rate : 187.500 FPS (256 SPF)
Compression mode : Lossy
Stream size : 22.2 MiB (2%)
Title : Italian
Language : Italian
Service kind : Complete Main
Default : No
Forced : No

Audio #7
ID : 8
Format : E-AC-3
Format/Info : Enhanced Audio Coding 3
Format settings, Endianness : Big
Codec ID : A_EAC3
Duration : 24 min 11 s
Bit rate mode : Constant
Bit rate : 128 kb/s
Channel(s) : 2 channels
Channel positions : Front: L R
Sampling rate : 48.0 kHz
Frame rate : 187.500 FPS (256 SPF)
Compression mode : Lossy
Stream size : 22.2 MiB (2%)
Title : Brazilian Portuguese
Language : Portuguese
Service kind : Complete Main
Default : No
Forced : No

Audio #8
ID : 9
Format : FLAC
Format/Info : Free Lossless Audio Codec
Codec ID : A_FLAC
Duration : 24 min 11 s
Bit rate mode : Variable
Bit rate : 1 486 kb/s
Channel(s) : 2 channels
Channel positions : Front: L R
Sampling rate : 48.0 kHz
Frame rate : 11.719 FPS (4096 SPF)
Bit depth : 24 bits
Stream size : 257 MiB (20%)
Title : Japanese
Writing library : libFLAC 1.3.2 (UTC 2017-01-01)
Language : Japanese
Default : No
Forced : No

Audio #9
ID : 10
Format : E-AC-3
Format/Info : Enhanced Audio Coding 3
Format settings, Endianness : Big
Codec ID : A_EAC3
Duration : 24 min 11 s
Bit rate mode : Constant
Bit rate : 128 kb/s
Channel(s) : 2 channels
Channel positions : Front: L R
Sampling rate : 48.0 kHz
Frame rate : 187.500 FPS (256 SPF)
Compression mode : Lossy
Stream size : 22.2 MiB (2%)
Title : Japanese (Audio Description)
Language : Japanese
Service kind : Complete Main
Default : No
Forced : No

Audio #10
ID : 11
Format : AC-3
Format/Info : Audio Coding 3
Format settings, Endianness : Big
Codec ID : A_AC3
Duration : 24 min 11 s
Bit rate mode : Constant
Bit rate : 192 kb/s
Channel(s) : 2 channels
Channel positions : Front: L R
Sampling rate : 48.0 kHz
Frame rate : 31.250 FPS (1536 SPF)
Bit depth : 16 bits
Compression mode : Lossy
Stream size : 33.2 MiB (3%)
Title : Japanese (Comments)
Language : Japanese
Service kind : Complete Main
Default : No
Forced : No

Text #1
ID : 12
Format : UTF-8
Codec ID : S_TEXT/UTF8
Codec ID/Info : UTF-8 Plain Text
Duration : 22 min 8 s
Bit rate : 8 b/s
Count of elements : 31
Stream size : 1.45 KiB (0%)
Title : English [Forced]
Language : English
Default : Yes
Forced : Yes

Text #2
ID : 13
Format : UTF-8
Codec ID : S_TEXT/UTF8
Codec ID/Info : UTF-8 Plain Text
Duration : 22 min 8 s
Bit rate : 43 b/s
Count of elements : 242
Stream size : 6.97 KiB (0%)
Title : English [Full]
Language : English
Default : No
Forced : No

Text #3
ID : 14
Format : UTF-8
Codec ID : S_TEXT/UTF8
Codec ID/Info : UTF-8 Plain Text
Duration : 23 min 49 s
Bit rate : 8 b/s
Count of elements : 36
Stream size : 1.53 KiB (0%)
Title : Castilian [Forced]
Language : Spanish
Default : No
Forced : Yes

Text #4
ID : 15
Format : UTF-8
Codec ID : S_TEXT/UTF8
Codec ID/Info : UTF-8 Plain Text
Duration : 23 min 49 s
Bit rate : 42 b/s
Count of elements : 244
Stream size : 7.40 KiB (0%)
Title : Castilian [Full]
Language : Spanish
Default : No
Forced : No

Text #5
ID : 16
Format : UTF-8
Codec ID : S_TEXT/UTF8
Codec ID/Info : UTF-8 Plain Text
Duration : 23 min 49 s
Bit rate : 8 b/s
Count of elements : 37
Stream size : 1.51 KiB (0%)
Title : Spanish [Forced]
Language : Spanish
Default : No
Forced : Yes

Text #6
ID : 17
Format : UTF-8
Codec ID : S_TEXT/UTF8
Codec ID/Info : UTF-8 Plain Text
Duration : 23 min 45 s
Bit rate : 43 b/s
Count of elements : 243
Stream size : 7.52 KiB (0%)
Title : Spanish [Full]
Language : Spanish
Default : No
Forced : No

Text #7
ID : 18
Format : UTF-8
Codec ID : S_TEXT/UTF8
Codec ID/Info : UTF-8 Plain Text
Duration : 23 min 49 s
Bit rate : 7 b/s
Count of elements : 36
Stream size : 1.37 KiB (0%)
Title : French [Forced]
Language : French
Default : No
Forced : Yes

Text #8
ID : 19
Format : UTF-8
Codec ID : S_TEXT/UTF8
Codec ID/Info : UTF-8 Plain Text
Duration : 23 min 49 s
Bit rate : 40 b/s
Count of elements : 250
Stream size : 7.04 KiB (0%)
Title : French [Full]
Language : French
Default : No
Forced : No

Text #9
ID : 20
Format : UTF-8
Codec ID : S_TEXT/UTF8
Codec ID/Info : UTF-8 Plain Text
Duration : 23 min 49 s
Bit rate : 7 b/s
Count of elements : 36
Stream size : 1.38 KiB (0%)
Title : German [Forced]
Language : German
Default : No
Forced : Yes

Text #10
ID : 21
Format : UTF-8
Codec ID : S_TEXT/UTF8
Codec ID/Info : UTF-8 Plain Text
Duration : 23 min 49 s
Bit rate : 43 b/s
Count of elements : 239
Stream size : 7.62 KiB (0%)
Title : German [Full]
Language : German
Default : No
Forced : No

Text #11
ID : 22
Format : UTF-8
Codec ID : S_TEXT/UTF8
Codec ID/Info : UTF-8 Plain Text
Duration : 23 min 49 s
Bit rate : 7 b/s
Count of elements : 34
Stream size : 1.37 KiB (0%)
Title : Italian [Forced]
Language : Italian
Default : No
Forced : Yes

Text #12
ID : 23
Format : UTF-8
Codec ID : S_TEXT/UTF8
Codec ID/Info : UTF-8 Plain Text
Duration : 23 min 49 s
Bit rate : 40 b/s
Count of elements : 236
Stream size : 7.01 KiB (0%)
Title : Italian [Full]
Language : Italian
Default : No
Forced : No

Text #13
ID : 24
Format : UTF-8
Codec ID : S_TEXT/UTF8
Codec ID/Info : UTF-8 Plain Text
Duration : 23 min 49 s
Bit rate : 40 b/s
Count of elements : 245
Stream size : 7.15 KiB (0%)
Title : Portuguese [Full]
Language : Portuguese
Default : No
Forced : No

Text #14
ID : 25
Format : UTF-8
Codec ID : S_TEXT/UTF8
Codec ID/Info : UTF-8 Plain Text
Duration : 23 min 49 s
Bit rate : 8 b/s
Count of elements : 36
Stream size : 1.42 KiB (0%)
Title : Brazilian Portuguese [Forced]
Language : Portuguese
Default : No
Forced : Yes

Text #15
ID : 26
Format : UTF-8
Codec ID : S_TEXT/UTF8
Codec ID/Info : UTF-8 Plain Text
Duration : 23 min 49 s
Bit rate : 42 b/s
Count of elements : 249
Stream size : 7.40 KiB (0%)
Title : Brazilian Portuguese [Full]
Language : Portuguese
Default : No
Forced : No

Text #16
ID : 27
Format : UTF-8
Codec ID : S_TEXT/UTF8
Codec ID/Info : UTF-8 Plain Text
Duration : 23 min 49 s
Bit rate : 36 b/s
Count of elements : 242
Stream size : 6.43 KiB (0%)
Title : Polish [Full]
Language : Polish
Default : No
Forced : No

Text #17
ID : 28
Format : UTF-8
Codec ID : S_TEXT/UTF8
Codec ID/Info : UTF-8 Plain Text
Duration : 23 min 49 s
Bit rate : 40 b/s
Count of elements : 246
Stream size : 7.07 KiB (0%)
Title : Turkish [Full]
Language : Turkish
Default : No
Forced : No

Text #18
ID : 29
Format : UTF-8
Codec ID : S_TEXT/UTF8
Codec ID/Info : UTF-8 Plain Text
Duration : 23 min 49 s
Bit rate : 38 b/s
Count of elements : 236
Stream size : 6.70 KiB (0%)
Title : Swedish [Full]
Language : Swedish
Default : No
Forced : No

Text #19
ID : 30
Format : UTF-8
Codec ID : S_TEXT/UTF8
Codec ID/Info : UTF-8 Plain Text
Duration : 23 min 45 s
Bit rate : 39 b/s
Count of elements : 239
Stream size : 6.95 KiB (0%)
Title : Danish [Full]
Language : Danish
Default : No
Forced : No

Text #20
ID : 31
Format : UTF-8
Codec ID : S_TEXT/UTF8
Codec ID/Info : UTF-8 Plain Text
Duration : 23 min 49 s
Bit rate : 35 b/s
Count of elements : 223
Stream size : 6.20 KiB (0%)
Title : Finnish [Full]
Language : Finnish
Default : No
Forced : No

Text #21
ID : 32
Format : UTF-8
Codec ID : S_TEXT/UTF8
Codec ID/Info : UTF-8 Plain Text
Duration : 23 min 49 s
Bit rate : 38 b/s
Count of elements : 226
Stream size : 6.78 KiB (0%)
Title : Dutch [Full]
Language : Dutch
Default : No
Forced : No

Text #22
ID : 33
Format : UTF-8
Codec ID : S_TEXT/UTF8
Codec ID/Info : UTF-8 Plain Text
Duration : 23 min 42 s
Bit rate : 39 b/s
Count of elements : 241
Stream size : 6.85 KiB (0%)
Title : Norwegian [Full]
Language : Norwegian
Default : No
Forced : No

Text #23
ID : 34
Format : UTF-8
Codec ID : S_TEXT/UTF8
Codec ID/Info : UTF-8 Plain Text
Duration : 22 min 8 s
Bit rate : 76 b/s
Count of elements : 242
Stream size : 12.4 KiB (0%)
Title : Bulgarian [Full]
Language : Bulgarian
Default : No
Forced : No

Text #24
ID : 35
Format : UTF-8
Codec ID : S_TEXT/UTF8
Codec ID/Info : UTF-8 Plain Text
Duration : 23 min 49 s
Bit rate : 67 b/s
Count of elements : 242
Stream size : 11.7 KiB (0%)
Title : Greek [Full]
Language : Greek
Default : No
Forced : No

Text #25
ID : 36
Format : UTF-8
Codec ID : S_TEXT/UTF8
Codec ID/Info : UTF-8 Plain Text
Duration : 23 min 49 s
Bit rate : 64 b/s
Count of elements : 245
Stream size : 11.3 KiB (0%)
Title : Hebrew [Full]
Language : Hebrew
Default : No
Forced : No

Text #26
ID : 37
Format : UTF-8
Codec ID : S_TEXT/UTF8
Codec ID/Info : UTF-8 Plain Text
Duration : 23 min 43 s
Bit rate : 70 b/s
Count of elements : 252
Stream size : 12.3 KiB (0%)
Title : Arabic [Full]
Language : Arabic
Default : No
Forced : No

Text #27
ID : 38
Format : UTF-8
Codec ID : S_TEXT/UTF8
Codec ID/Info : UTF-8 Plain Text
Duration : 23 min 49 s
Bit rate : 39 b/s
Count of elements : 244
Stream size : 6.89 KiB (0%)
Title : Romanian [Full]
Language : Romanian
Default : No
Forced : No

Text #28
ID : 39
Format : UTF-8
Codec ID : S_TEXT/UTF8
Codec ID/Info : UTF-8 Plain Text
Duration : 23 min 49 s
Bit rate : 102 b/s
Count of elements : 246
Stream size : 17.9 KiB (0%)
Title : Thai [Full]
Language : Thai
Default : No
Forced : No

Text #29
ID : 40
Format : UTF-8
Codec ID : S_TEXT/UTF8
Codec ID/Info : UTF-8 Plain Text
Duration : 23 min 49 s
Bit rate : 45 b/s
Count of elements : 246
Stream size : 7.93 KiB (0%)
Title : Korean [Full]
Language : Korean
Default : No
Forced : No

Text #30
ID : 41
Format : UTF-8
Codec ID : S_TEXT/UTF8
Codec ID/Info : UTF-8 Plain Text
Duration : 23 min 45 s
Bit rate : 39 b/s
Count of elements : 246
Stream size : 6.95 KiB (0%)
Title : Chinese (Simplified) [Full]
Language : Chinese
Default : No
Forced : No

Text #31
ID : 42
Format : UTF-8
Codec ID : S_TEXT/UTF8
Codec ID/Info : UTF-8 Plain Text
Duration : 23 min 49 s
Bit rate : 40 b/s
Count of elements : 245
Stream size : 7.10 KiB (0%)
Title : Chinese (Traditional) [Full]
Language : Chinese
Default : No
Forced : No

Text #32
ID : 43
Format : UTF-8
Codec ID : S_TEXT/UTF8
Codec ID/Info : UTF-8 Plain Text
Duration : 23 min 39 s
Bit rate : 72 b/s
Count of elements : 335
Stream size : 12.5 KiB (0%)
Title : Japanese [SDH]
Language : Japanese
Default : No
Forced : No





Devilman: Crybaby S01E03


Devilman: Crybaby S01E03


Devilman: Crybaby S01E03


Devilman: Crybaby S01E03


Devilman: Crybaby S01E03

All episodes