DuckTales S02E13

Posted By: Tavaz
1080p (FullHD) / WEB-DL IMDb
DuckTales S02E13

DuckTales S02E13
WEB-DL | MKV | 1920x1080 | English | H264 @ 5127 kbps | AAC @ 125 kbps | 22 min 32 s | 847 MiB
Subtitles: English
Genre: Animation, Comedy, Family


The adventures of billionaire Scrooge McDuck and his nephews Huey, Dewey and Louie, their famous uncle Donald Duck, pilot extraordinaire Launchpad, Mrs. Beakly, Webby and Roboduck. Adventures and hidden treasures are everywhere, in their hometown Duckburg and all around the world.

DuckTales.2017.S02E13.Raiders.of.the.Doomsday.Vault.1080p.WEB-DL.AAC2.0.H.264-LAZY.mkv (847.1 MB)



General
Unique ID : 136306000470372521295145615444499178749 (0x668B94AEB0980542600310C5870B24FD)
Complete name : ./DuckTales.2017.S02E13.Raiders.of.the.Doomsday.Vault.1080p.WEB-DL.AAC2.0.H.264-LAZY.mkv
Format : Matroska
Format version : Version 4 / Version 2
File size : 847 MiB
Duration : 22 min 32 s
Overall bit rate : 5 255 kb/s
Encoded date : UTC 2019-05-15 19:33:21
Writing application : mkvmerge v32.0.0 ('Astral Progressions') 64-bit
Writing library : libebml v1.3.7 + libmatroska v1.5.0

Video
ID : 1
Format : AVC
Format/Info : Advanced Video Codec
Format profile : High@L4
Format settings : CABAC / 4 Ref Frames
Format settings, CABAC : Yes
Format settings, RefFrames : 4 frames
Codec ID : V_MPEG4/ISO/AVC
Duration : 22 min 32 s
Bit rate : 5 127 kb/s
Width : 1 920 pixels
Height : 1 080 pixels
Display aspect ratio : 16:9
Frame rate mode : Constant
Frame rate : 23.976 (24000/1001) FPS
Color space : YUV
Chroma subsampling : 4:2:0
Bit depth : 8 bits
Scan type : Progressive
Bits/(Pixel*Frame) : 0.103
Stream size : 826 MiB (98%)
Language : English
Default : Yes
Forced : No
Color range : Limited
Color primaries : BT.709
Transfer characteristics : BT.709
Matrix coefficients : BT.709

Audio
ID : 2
Format : AAC
Format/Info : Advanced Audio Codec
Format profile : LC
Codec ID : A_AAC-2
Duration : 22 min 32 s
Bit rate : 125 kb/s
Channel(s) : 2 channels
Channel positions : Front: L R
Sampling rate : 48.0 kHz
Frame rate : 46.875 FPS (1024 SPF)
Compression mode : Lossy
Delay relative to video : -42 ms
Stream size : 20.2 MiB (2%)
Language : English
Default : Yes
Forced : No

Text
ID : 3
Format : UTF-8
Codec ID : S_TEXT/UTF8
Codec ID/Info : UTF-8 Plain Text
Duration : 22 min 7 s
Bit rate : 118 b/s
Count of elements : 435
Stream size : 19.2 KiB (0%)
Language : English
Default : No
Forced : No





DuckTales S02E13


DuckTales S02E13


DuckTales S02E13


DuckTales S02E13


DuckTales S02E13

All episodes