Featured TV Shows


DuckTales S02E19

Posted By: Tavaz
1080p (FullHD) / WEB-DL IMDb
DuckTales S02E19

DuckTales S02E19
WEB-DL | MKV | 1920x1080 | German / English | H264 @ 5332 kbps | AC-3 @ 192 kbps | 21 min 36 s | 884 MiB
Genre: Animation, Komödie, Familie


Die große Zeit des Schatzjägers Dagobert Duck ist vorbei, nun erlebt er nur noch quasi in Legenden halsbrecherische Abenteuer. Auch seine Großneffen Tick, Trick und Track, die er noch nie getroffen hat, kennen diese Geschichten und sind hocherfreut, als ihr Onkel Donald Duck sie wegen eines Vorstellungsgesprächs kurzfristig bei Dagobert abgibt. Dies ist der Auftakt nicht nur für ganz neue Abenteuer der Familie Duck, sondern auch zu einer Reaktivierung von Dagoberts Entdeckertriebs.

DuckTales.2017.S02E19.Albtraum.auf.dem.Glatzenkogel.German.DD20.Dubbed.DL.1080p.Web-DL.h264-GDR.mkv (884.0 MB)



General
Unique ID : 15912691615739518779231035784292910874 (0xBF8AC44FFFAD7C327D4DA050D3AC71A)
Complete name : ./DuckTales.2017.S02E19.Albtraum.auf.dem.Glatzenkogel.German.DD20.Dubbed.DL.1080p.Web-DL.h264-GDR.mkv
Format : Matroska
Format version : Version 4 / Version 2
File size : 884 MiB
Duration : 21 min 36 s
Overall bit rate : 5 719 kb/s
Encoded date : UTC 2019-11-13 19:37:55
Writing application : mkvmerge v23.0.0 ('The Bride Said No') 64-bit
Writing library : libebml v1.3.6 + libmatroska v1.4.9

Video
ID : 1
Format : AVC
Format/Info : Advanced Video Codec
Format profile : High@L4
Format settings : CABAC / 4 Ref Frames
Format settings, CABAC : Yes
Format settings, RefFrames : 4 frames
Codec ID : V_MPEG4/ISO/AVC
Duration : 21 min 36 s
Bit rate : 5 332 kb/s
Width : 1 920 pixels
Height : 1 080 pixels
Display aspect ratio : 16:9
Frame rate mode : Constant
Frame rate : 25.000 FPS
Color space : YUV
Chroma subsampling : 4:2:0
Bit depth : 8 bits
Scan type : Progressive
Bits/(Pixel*Frame) : 0.103
Stream size : 824 MiB (93%)
Language : German
Default : Yes
Forced : No
Color range : Limited
Color primaries : BT.709
Transfer characteristics : BT.709
Matrix coefficients : BT.709

Audio #1
ID : 2
Format : AC-3
Format/Info : Audio Coding 3
Format settings, Endianness : Big
Codec ID : A_AC3
Duration : 21 min 36 s
Bit rate mode : Constant
Bit rate : 192 kb/s
Channel(s) : 2 channels
Channel positions : Front: L R
Sampling rate : 48.0 kHz
Frame rate : 31.250 FPS (1536 SPF)
Bit depth : 16 bits
Compression mode : Lossy
Stream size : 29.7 MiB (3%)
Language : German
Service kind : Complete Main
Default : Yes
Forced : No

Audio #2
ID : 3
Format : AC-3
Format/Info : Audio Coding 3
Format settings, Endianness : Big
Codec ID : A_AC3
Duration : 21 min 36 s
Bit rate mode : Constant
Bit rate : 192 kb/s
Channel(s) : 2 channels
Channel positions : Front: L R
Sampling rate : 48.0 kHz
Frame rate : 31.250 FPS (1536 SPF)
Bit depth : 16 bits
Compression mode : Lossy
Stream size : 29.7 MiB (3%)
Language : English
Service kind : Complete Main
Default : No
Forced : No





DuckTales S02E19


DuckTales S02E19


DuckTales S02E19


DuckTales S02E19


DuckTales S02E19

All episodes