Featured TV Shows


DuckTales S02E22

Posted By: Tavaz
1080p (FullHD) / WEB-DL IMDb
DuckTales S02E22

DuckTales S02E22
WEB-DL | MKV | 1920x1080 | English | H264 @ 5121 kbps | AAC @ 125 kbps | 22 min 32 s | 846 MiB
Subtitles: English
Genre: Animazione, Commedia, Famiglia


Dopo non essersi parlati per diversi anni, Paperon de' Paperoni e Paperino si riavvicinano dopo che quest'ultimo chiede allo zio di badare per la giornata ai suoi nipoti Qui, Quo e Qua. La presenza dei nipoti riaccende la sete di avventura di Paperone, che conduce la famiglia in numerose imprese alla ricerca di tesori e misteri mentre i nipoti, aiutati da Gaia, sono decisi a scoprire i veri motivi che portarono gli zii a litigare e allontanarsi l'uno dall'altro, nonché a svelare il segreto dietro la scomparsa della loro madre Della.

e1be3b0560e24b86b1732aebef9f870b.mkv (846.2 MB)



General
Unique ID : 94613265444085572937662086783903900579 (0x472DDA239610E903186354F03C96A3A3)
Complete name : ./e1be3b0560e24b86b1732aebef9f870b.mkv
Format : Matroska
Format version : Version 4 / Version 2
File size : 846 MiB
Duration : 22 min 32 s
Overall bit rate : 5 250 kb/s
Encoded date : UTC 2019-09-11 17:09:02
Writing application : mkvmerge v37.0.0 ('Leave It') 64-bit
Writing library : libebml v1.3.9 + libmatroska v1.5.2

Video
ID : 1
Format : AVC
Format/Info : Advanced Video Codec
Format profile : High@L4
Format settings : CABAC / 4 Ref Frames
Format settings, CABAC : Yes
Format settings, RefFrames : 4 frames
Codec ID : V_MPEG4/ISO/AVC
Duration : 22 min 32 s
Bit rate : 5 122 kb/s
Width : 1 920 pixels
Height : 1 080 pixels
Display aspect ratio : 16:9
Frame rate mode : Constant
Frame rate : 23.976 (24000/1001) FPS
Color space : YUV
Chroma subsampling : 4:2:0
Bit depth : 8 bits
Scan type : Progressive
Bits/(Pixel*Frame) : 0.103
Stream size : 826 MiB (98%)
Language : English
Default : Yes
Forced : No
Color range : Limited
Color primaries : BT.709
Transfer characteristics : BT.709
Matrix coefficients : BT.709

Audio
ID : 2
Format : AAC
Format/Info : Advanced Audio Codec
Format profile : LC
Codec ID : A_AAC-2
Duration : 22 min 32 s
Bit rate : 125 kb/s
Channel(s) : 2 channels
Channel positions : Front: L R
Sampling rate : 48.0 kHz
Frame rate : 46.875 FPS (1024 SPF)
Compression mode : Lossy
Delay relative to video : -42 ms
Stream size : 20.2 MiB (2%)
Language : English
Default : Yes
Forced : No

Text
ID : 3
Format : UTF-8
Codec ID : S_TEXT/UTF8
Codec ID/Info : UTF-8 Plain Text
Duration : 22 min 6 s
Bit rate : 126 b/s
Count of elements : 510
Stream size : 20.5 KiB (0%)
Language : English
Default : No
Forced : No





DuckTales S02E22


DuckTales S02E22


DuckTales S02E22


DuckTales S02E22


DuckTales S02E22

All episodes