Featured TV Shows


DuckTales S02E23

Posted By: Tavaz
720p (HD) / WEB-DL IMDb
DuckTales S02E23

DuckTales S02E23
WEB-DL | MKV | 1280x720 | English | H264 @ 3360 kbps | AAC @ 126 kbps | 22 min 28 s | 554 MiB
Subtitles: English
Genre: Animation, Comedy, Family


The adventures of billionaire Scrooge McDuck and his nephews Huey, Dewey and Louie, their famous uncle Donald Duck, pilot extraordinaire Launchpad, Mrs. Beakly, Webby and Roboduck. Adventures and hidden treasures are everywhere, in their hometown Duckburg and all around the world.

6870d16bc61e4a8d8b24428867cec352.mkv (554.4 MB)



General
Unique ID : 133196823767810816293918949512719846081 (0x6434C66F85476D3A4C0C9770FDA34AC1)
Complete name : ./6870d16bc61e4a8d8b24428867cec352.mkv
Format : Matroska
Format version : Version 4 / Version 2
File size : 554 MiB
Duration : 22 min 28 s
Overall bit rate : 3 447 kb/s
Encoded date : UTC 2019-09-11 17:15:22
Writing application : mkvmerge v37.0.0 ('Leave It') 64-bit
Writing library : libebml v1.3.9 + libmatroska v1.5.2

Video
ID : 1
Format : AVC
Format/Info : Advanced Video Codec
Format profile : High@L3.1
Format settings : CABAC / 2 Ref Frames
Format settings, CABAC : Yes
Format settings, RefFrames : 2 frames
Codec ID : V_MPEG4/ISO/AVC
Duration : 22 min 28 s
Bit rate : 3 360 kb/s
Width : 1 280 pixels
Height : 720 pixels
Display aspect ratio : 16:9
Frame rate mode : Constant
Frame rate : 23.976 (24000/1001) FPS
Color space : YUV
Chroma subsampling : 4:2:0
Bit depth : 8 bits
Scan type : Progressive
Bits/(Pixel*Frame) : 0.152
Stream size : 534 MiB (96%)
Writing library : x264 core 148 r2579M 73ae2d1
Encoding settings : cabac=1 / ref=2 / deblock=1:0:0 / analyse=0x3:0x113 / me=hex / subme=2 / psy=1 / psy_rd=1.00:0.00 / mixed_ref=0 / me_range=16 / chroma_me=1 / trellis=0 / 8x8dct=1 / cqm=0 / deadzone=21,11 / fast_pskip=1 / chroma_qp_offset=0 / threads=4 / lookahead_threads=1 / sliced_threads=0 / nr=250 / decimate=1 / interlaced=0 / bluray_compat=0 / stitchable=1 / constrained_intra=0 / bframes=0 / weightp=1 / keyint=250 / keyint_min=25 / scenecut=40 / intra_refresh=0 / rc_lookahead=10 / rc=2pass / mbtree=1 / bitrate=3360 / ratetol=1.0 / qcomp=0.60 / qpmin=5 / qpmax=69 / qpstep=4 / cplxblur=20.0 / qblur=0.5 / ip_ratio=1.40 / aq=1:1.00
Language : English
Default : Yes
Forced : No
Color range : Limited
Color primaries : BT.709
Transfer characteristics : BT.709
Matrix coefficients : BT.709

Audio
ID : 2
Format : AAC
Format/Info : Advanced Audio Codec
Format profile : HE-AAC / LC
Format settings : Implicit
Codec ID : A_AAC-2
Duration : 22 min 28 s
Bit rate : 127 kb/s
Channel(s) : 2 channels
Channel positions : Front: L R
Sampling rate : 48.0 kHz / 24.0 kHz
Frame rate : 23.438 FPS (1024 SPF)
Compression mode : Lossy
Stream size : 20.4 MiB (4%)
Language : English
Default : Yes
Forced : No

Text
ID : 3
Format : UTF-8
Codec ID : S_TEXT/UTF8
Codec ID/Info : UTF-8 Plain Text
Duration : 21 min 59 s
Bit rate : 92 b/s
Count of elements : 510
Stream size : 14.9 KiB (0%)
Language : English
Default : No
Forced : No





DuckTales S02E23


DuckTales S02E23


DuckTales S02E23


DuckTales S02E23


DuckTales S02E23

All episodes