Index
# A B C D E F G H I J K L M N O P Q R S T U V W Y Z
Tags
Language
Tags

Featured TV Shows


Duncanville S01E02

Posted By: Tavaz
1080p (FullHD) / WEBRip IMDb
Duncanville S01E02

Duncanville S01E02
WEBRip | MKV | 1920x1080 | Français / English | H264 @ 3638 kbps | E-AC-3 @ 640 kbps | 21 min 37 s | 761 MiB
Subtitles: Français, English
Genre: Animation, Comedy


The series centers on the life of Duncan, a spectacularly average 15-year-old boy, his family and friends. Poehler will provide the voice of Duncan and his high-strung mom, Annie, who is constantly trying to prevent her son from ruining his life.

850e793c9f67441d9321714542cd1198.mkv (761.1 MB)



General
Unique ID : 6776236778710797448536802404593160548 (0x5190E4477CA5A3BC673EF24FD79D164)
Complete name : ./850e793c9f67441d9321714542cd1198.mkv
Format : Matroska
Format version : Version 4 / Version 2
File size : 761 MiB
Duration : 21 min 37 s
Overall bit rate : 4 921 kb/s
Encoded date : UTC 2020-11-08 10:07:20
Writing application : mkvmerge v51.0.0 ('I Wish') 64-bit
Writing library : libebml v1.4.0 + libmatroska v1.6.2

Video
ID : 1
Format : AVC
Format/Info : Advanced Video Codec
Format profile : High@L4
Format settings : CABAC / 4 Ref Frames
Format settings, CABAC : Yes
Format settings, RefFrames : 4 frames
Codec ID : V_MPEG4/ISO/AVC
Duration : 21 min 37 s
Bit rate mode : Constant
Bit rate : 3 639 kb/s
Nominal bit rate : 10 000 kb/s
Width : 1 920 pixels
Height : 1 080 pixels
Display aspect ratio : 16:9
Frame rate mode : Constant
Frame rate : 23.976 (24000/1001) FPS
Color space : YUV
Chroma subsampling : 4:2:0
Bit depth : 8 bits
Scan type : Progressive
Bits/(Pixel*Frame) : 0.073
Stream size : 563 MiB (74%)
Language : English
Default : Yes
Forced : No
Color range : Limited
Color primaries : BT.709
Transfer characteristics : BT.709
Matrix coefficients : BT.709

Audio #1
ID : 2
Format : E-AC-3
Format/Info : Enhanced Audio Coding 3
Format settings, Endianness : Big
Codec ID : A_EAC3
Duration : 21 min 37 s
Bit rate mode : Constant
Bit rate : 640 kb/s
Channel(s) : 6 channels
Channel positions : Front: L C R, Side: L R, LFE
Sampling rate : 48.0 kHz
Frame rate : 187.500 FPS (256 SPF)
Compression mode : Lossy
Stream size : 99.0 MiB (13%)
Title : French
Language : French
Service kind : Complete Main
Default : Yes
Forced : No

Audio #2
ID : 3
Format : E-AC-3
Format/Info : Enhanced Audio Coding 3
Format settings, Endianness : Big
Codec ID : A_EAC3
Duration : 21 min 37 s
Bit rate mode : Constant
Bit rate : 640 kb/s
Channel(s) : 6 channels
Channel positions : Front: L C R, Side: L R, LFE
Sampling rate : 48.0 kHz
Frame rate : 187.500 FPS (256 SPF)
Compression mode : Lossy
Stream size : 99.0 MiB (13%)
Title : English
Language : English
Service kind : Complete Main
Default : No
Forced : No

Text #1
ID : 4
Format : UTF-8
Codec ID : S_TEXT/UTF8
Codec ID/Info : UTF-8 Plain Text
Duration : 19 min 19 s
Bit rate : 3 b/s
Count of elements : 12
Stream size : 508 Bytes (0%)
Title : French Forced
Language : French
Default : Yes
Forced : Yes

Text #2
ID : 5
Format : UTF-8
Codec ID : S_TEXT/UTF8
Codec ID/Info : UTF-8 Plain Text
Duration : 20 min 46 s
Bit rate : 90 b/s
Count of elements : 414
Stream size : 13.8 KiB (0%)
Title : French Full
Language : French
Default : No
Forced : No

Text #3
ID : 6
Format : UTF-8
Codec ID : S_TEXT/UTF8
Codec ID/Info : UTF-8 Plain Text
Duration : 21 min 25 s
Bit rate : 110 b/s
Count of elements : 484
Stream size : 17.4 KiB (0%)
Title : English SDH
Language : English
Default : No
Forced : No





Duncanville S01E02


Duncanville S01E02


Duncanville S01E02


Duncanville S01E02


Duncanville S01E02

All episodes