Index
# A B C D E F G H I J K L M N O P Q R S T U V W Y Z
Tags
Language
Tags

Featured TV Shows


Duncanville S01E08

Posted By: Tavaz
1080p (FullHD) / WEB-DL IMDb
Duncanville S01E08

Duncanville S01E08
WEB-DL | MKV | 1920x1080 | English | H264 @ 3162 kbps | E-AC-3 @ 640 kbps | 21 min 39 s | 589 MiB
Subtitles: English
Genre: Animation, Comedy


The series centers on the life of Duncan, a spectacularly average 15-year-old boy, his family and friends. Poehler will provide the voice of Duncan and his high-strung mom, Annie, who is constantly trying to prevent her son from ruining his life.

bc4a2b36e61e4fea885e7b44c4a0c47d.mkv (589.2 MB)



General
Unique ID : 86626829108742300335615360972755537546 (0x412BB86D3BFFE7886C2B7C5C13178E8A)
Complete name : ./bc4a2b36e61e4fea885e7b44c4a0c47d.mkv
Format : Matroska
Format version : Version 4 / Version 2
File size : 589 MiB
Duration : 21 min 39 s
Overall bit rate : 3 804 kb/s
Encoded date : UTC 2020-04-28 00:08:35
Writing application : mkvmerge v45.0.0 ('Heaven in Pennies') 64-bit
Writing library : libebml v1.3.10 + libmatroska v1.5.2

Video
ID : 1
Format : AVC
Format/Info : Advanced Video Codec
Format profile : High@L4
Format settings : CABAC / 4 Ref Frames
Format settings, CABAC : Yes
Format settings, RefFrames : 4 frames
Codec ID : V_MPEG4/ISO/AVC
Duration : 21 min 39 s
Bit rate : 3 162 kb/s
Width : 1 920 pixels
Height : 1 080 pixels
Display aspect ratio : 16:9
Frame rate mode : Constant
Frame rate : 23.976 (24000/1001) FPS
Color space : YUV
Chroma subsampling : 4:2:0
Bit depth : 8 bits
Scan type : Progressive
Bits/(Pixel*Frame) : 0.064
Stream size : 490 MiB (83%)
Language : English
Default : Yes
Forced : No

Audio
ID : 2
Format : E-AC-3
Format/Info : Enhanced Audio Coding 3
Format settings, Endianness : Big
Codec ID : A_EAC3
Duration : 21 min 39 s
Bit rate mode : Constant
Bit rate : 640 kb/s
Channel(s) : 6 channels
Channel positions : Front: L C R, Side: L R, LFE
Sampling rate : 48.0 kHz
Frame rate : 187.500 FPS (256 SPF)
Compression mode : Lossy
Delay relative to video : 200 ms
Stream size : 99.1 MiB (17%)
Language : English
Service kind : Complete Main
Default : Yes
Forced : No

Text
ID : 3
Format : UTF-8
Codec ID : S_TEXT/UTF8
Codec ID/Info : UTF-8 Plain Text
Duration : 21 min 30 s
Bit rate : 113 b/s
Count of elements : 561
Stream size : 17.9 KiB (0%)
Language : English
Default : No
Forced : No





Duncanville S01E08


Duncanville S01E08


Duncanville S01E08


Duncanville S01E08


Duncanville S01E08

All episodes