Index
# A B C D E F G H I J K L M N O P Q R S T U V W Y Z
Tags
Language
Tags

Featured TV Shows


Duncanville S01E09

Posted By: Tavaz
1080p (FullHD) / WEB-DL IMDb
Duncanville S01E09

Duncanville S01E09
WEB-DL | MKV | 1920x1080 | English | H264 @ 3084 kbps | E-AC-3 @ 640 kbps | 21 min 41 s | 578 MiB
Subtitles: English
Genre: Animation, Comedy


The series centers on the life of Duncan, a spectacularly average 15-year-old boy, his family and friends. Poehler will provide the voice of Duncan and his high-strung mom, Annie, who is constantly trying to prevent her son from ruining his life.

813e5ffcd1eb4b2581fe35fabaaf17f4.mkv (577.6 MB)



General
Unique ID : 37052145617098597435632953586976380263 (0x1BDFFBD21C3398F13910286DB3155567)
Complete name : ./813e5ffcd1eb4b2581fe35fabaaf17f4.mkv
Format : Matroska
Format version : Version 4 / Version 2
File size : 578 MiB
Duration : 21 min 41 s
Overall bit rate : 3 723 kb/s
Encoded date : UTC 2020-05-04 09:21:24
Writing application : mkvmerge v46.0.0 ('No Deeper Escape') 64-bit
Writing library : libebml v1.3.10 + libmatroska v1.5.2

Video
ID : 1
Format : AVC
Format/Info : Advanced Video Codec
Format profile : High@L4
Format settings : CABAC / 4 Ref Frames
Format settings, CABAC : Yes
Format settings, RefFrames : 4 frames
Codec ID : V_MPEG4/ISO/AVC
Duration : 21 min 40 s
Bit rate : 3 085 kb/s
Width : 1 920 pixels
Height : 1 080 pixels
Display aspect ratio : 16:9
Frame rate mode : Constant
Frame rate : 23.976 (24000/1001) FPS
Color space : YUV
Chroma subsampling : 4:2:0
Bit depth : 8 bits
Scan type : Progressive
Bits/(Pixel*Frame) : 0.062
Stream size : 478 MiB (83%)
Language : English
Default : Yes
Forced : No
Color range : Limited
Color primaries : BT.709
Transfer characteristics : BT.709
Matrix coefficients : BT.709

Audio
ID : 2
Format : E-AC-3
Format/Info : Enhanced Audio Coding 3
Format settings, Endianness : Big
Codec ID : A_EAC3
Duration : 21 min 40 s
Bit rate mode : Constant
Bit rate : 640 kb/s
Channel(s) : 6 channels
Channel positions : Front: L C R, Side: L R, LFE
Sampling rate : 48.0 kHz
Frame rate : 187.500 FPS (256 SPF)
Compression mode : Lossy
Delay relative to video : 16 ms
Stream size : 99.2 MiB (17%)
Language : English
Service kind : Complete Main
Default : Yes
Forced : No

Text
ID : 3
Format : UTF-8
Codec ID : S_TEXT/UTF8
Codec ID/Info : UTF-8 Plain Text
Duration : 21 min 39 s
Bit rate : 116 b/s
Count of elements : 586
Stream size : 18.4 KiB (0%)
Title : SDH
Language : English
Default : No
Forced : No





Duncanville S01E09


Duncanville S01E09


Duncanville S01E09


Duncanville S01E09


Duncanville S01E09

All episodes