Index
# A B C D E F G H I J K L M N O P Q R S T U V W Y Z
Tags
Language
Tags

Featured TV Shows


Duncanville S01E09

Posted By: Tavaz
720p (HD) / WEB-DL IMDb
Duncanville S01E09

Duncanville S01E09
WEB-DL | MKV | 1280x720 | English | H264 @ 1414 kbps | E-AC-3 @ 640 kbps | 21 min 39 s | 318 MiB
Subtitles: English
Genre: Animation, Comedy


The series centers on the life of Duncan, a spectacularly average 15-year-old boy, his family and friends. Poehler will provide the voice of Duncan and his high-strung mom, Annie, who is constantly trying to prevent her son from ruining his life.

38f70b4ddd154caaacfa03f1869d7afc.mkv (318.4 MB)



General
Unique ID : 266844658835411050589965901959559676368 (0xC8C06971F4EB0056E97C168F42BC81D0)
Complete name : ./38f70b4ddd154caaacfa03f1869d7afc.mkv
Format : Matroska
Format version : Version 4 / Version 2
File size : 318 MiB
Duration : 21 min 39 s
Overall bit rate : 2 056 kb/s
Encoded date : UTC 2020-05-04 10:31:37
Writing application : mkvmerge v46.0.0 ('No Deeper Escape') 64-bit
Writing library : libebml v1.3.10 + libmatroska v1.5.2

Video
ID : 1
Format : AVC
Format/Info : Advanced Video Codec
Format profile : High@L3.1
Format settings : CABAC / 5 Ref Frames
Format settings, CABAC : Yes
Format settings, RefFrames : 5 frames
Codec ID : V_MPEG4/ISO/AVC
Duration : 21 min 39 s
Bit rate : 1 415 kb/s
Width : 1 280 pixels
Height : 720 pixels
Display aspect ratio : 16:9
Frame rate mode : Constant
Frame rate : 23.976 (24000/1001) FPS
Color space : YUV
Chroma subsampling : 4:2:0
Bit depth : 8 bits
Scan type : Progressive
Bits/(Pixel*Frame) : 0.064
Stream size : 219 MiB (69%)
Language : English
Default : Yes
Forced : No

Audio
ID : 2
Format : E-AC-3
Format/Info : Enhanced Audio Coding 3
Format settings, Endianness : Big
Codec ID : A_EAC3
Duration : 21 min 38 s
Bit rate mode : Constant
Bit rate : 640 kb/s
Channel(s) : 6 channels
Channel positions : Front: L C R, Side: L R, LFE
Sampling rate : 48.0 kHz
Frame rate : 187.500 FPS (256 SPF)
Compression mode : Lossy
Delay relative to video : 200 ms
Stream size : 99.0 MiB (31%)
Language : English
Service kind : Complete Main
Default : Yes
Forced : No

Text
ID : 3
Format : UTF-8
Codec ID : S_TEXT/UTF8
Codec ID/Info : UTF-8 Plain Text
Duration : 21 min 29 s
Bit rate : 124 b/s
Count of elements : 585
Stream size : 19.5 KiB (0%)
Language : English
Default : No
Forced : No





Duncanville S01E09


Duncanville S01E09


Duncanville S01E09


Duncanville S01E09


Duncanville S01E09

All episodes