Index
# A B C D E F G H I J K L M N O P Q R S T U V W Y Z
Tags
Language
Tags

Featured TV Shows


Duncanville S01E10

Posted By: Tavaz
720p (HD) / WEB-DL IMDb
Duncanville S01E10

Duncanville S01E10
WEB-DL | MKV | 1280x720 | English | H264 @ 1257 kbps | E-AC-3 @ 640 kbps | 21 min 41 s | 294 MiB
Subtitles: English
Genre: Animation, Comedy


The series centers on the life of Duncan, a spectacularly average 15-year-old boy, his family and friends. Poehler will provide the voice of Duncan and his high-strung mom, Annie, who is constantly trying to prevent her son from ruining his life.

de6fda477c414860867d48ee98b38b6a.mkv (294.4 MB)



General
Unique ID : 244902116260011061612870665227140602919 (0xB83E6E91F980BFBE5653A1BE00301C27)
Complete name : ./de6fda477c414860867d48ee98b38b6a.mkv
Format : Matroska
Format version : Version 4 / Version 2
File size : 294 MiB
Duration : 21 min 41 s
Overall bit rate : 1 899 kb/s
Encoded date : UTC 2020-05-12 08:45:05
Writing application : mkvmerge v46.0.0 ('No Deeper Escape') 64-bit
Writing library : libebml v1.3.10 + libmatroska v1.5.2

Video
ID : 1
Format : AVC
Format/Info : Advanced Video Codec
Format profile : High@L3.1
Format settings : CABAC / 5 Ref Frames
Format settings, CABAC : Yes
Format settings, RefFrames : 5 frames
Codec ID : V_MPEG4/ISO/AVC
Duration : 21 min 40 s
Bit rate : 1 258 kb/s
Width : 1 280 pixels
Height : 720 pixels
Display aspect ratio : 16:9
Frame rate mode : Constant
Frame rate : 23.976 (24000/1001) FPS
Color space : YUV
Chroma subsampling : 4:2:0
Bit depth : 8 bits
Scan type : Progressive
Bits/(Pixel*Frame) : 0.057
Stream size : 195 MiB (66%)
Language : English
Default : Yes
Forced : No
Color range : Limited
Color primaries : BT.709
Transfer characteristics : BT.709
Matrix coefficients : BT.709

Audio
ID : 2
Format : E-AC-3
Format/Info : Enhanced Audio Coding 3
Format settings, Endianness : Big
Codec ID : A_EAC3
Duration : 21 min 40 s
Bit rate mode : Constant
Bit rate : 640 kb/s
Channel(s) : 6 channels
Channel positions : Front: L C R, Side: L R, LFE
Sampling rate : 48.0 kHz
Frame rate : 187.500 FPS (256 SPF)
Compression mode : Lossy
Delay relative to video : 16 ms
Stream size : 99.2 MiB (34%)
Language : English
Service kind : Complete Main
Default : Yes
Forced : No

Text
ID : 3
Format : UTF-8
Codec ID : S_TEXT/UTF8
Codec ID/Info : UTF-8 Plain Text
Duration : 21 min 38 s
Bit rate : 104 b/s
Count of elements : 602
Stream size : 16.6 KiB (0%)
Title : SDH
Language : English
Default : No
Forced : No





Duncanville S01E10


Duncanville S01E10


Duncanville S01E10


Duncanville S01E10


Duncanville S01E10

All episodes