Index
# A B C D E F G H I J K L M N O P Q R S T U V W Y Z
Tags
Language
Tags

Featured TV Shows


Duncanville S01E11

Posted By: Tavaz
720p (HD) / WEB-DL IMDb
Duncanville S01E11

Duncanville S01E11
WEB-DL | MKV | 1280x720 | English | H264 @ 1195 kbps | E-AC-3 @ 640 kbps | 21 min 41 s | 285 MiB
Subtitles: English
Genre: Animation, Comedy


The series centers on the life of Duncan, a spectacularly average 15-year-old boy, his family and friends. Poehler will provide the voice of Duncan and his high-strung mom, Annie, who is constantly trying to prevent her son from ruining his life.

ca3fa0c7eb714c0d9c35980dc22c4304.mkv (284.8 MB)



General
Unique ID : 335229098690021900949830080432347396975 (0xFC32C6A3FC0BAEEDFC305A958E45BB6F)
Complete name : ./ca3fa0c7eb714c0d9c35980dc22c4304.mkv
Format : Matroska
Format version : Version 4 / Version 2
File size : 285 MiB
Duration : 21 min 41 s
Overall bit rate : 1 835 kb/s
Encoded date : UTC 2020-05-18 09:39:33
Writing application : mkvmerge v46.0.0 ('No Deeper Escape') 64-bit
Writing library : libebml v1.3.10 + libmatroska v1.5.2

Video
ID : 1
Format : AVC
Format/Info : Advanced Video Codec
Format profile : High@L3.1
Format settings : CABAC / 5 Ref Frames
Format settings, CABAC : Yes
Format settings, RefFrames : 5 frames
Codec ID : V_MPEG4/ISO/AVC
Duration : 21 min 40 s
Bit rate : 1 195 kb/s
Width : 1 280 pixels
Height : 720 pixels
Display aspect ratio : 16:9
Frame rate mode : Constant
Frame rate : 23.976 (24000/1001) FPS
Color space : YUV
Chroma subsampling : 4:2:0
Bit depth : 8 bits
Scan type : Progressive
Bits/(Pixel*Frame) : 0.054
Stream size : 185 MiB (65%)
Language : English
Default : Yes
Forced : No
Color range : Limited
Color primaries : BT.709
Transfer characteristics : BT.709
Matrix coefficients : BT.709

Audio
ID : 2
Format : E-AC-3
Format/Info : Enhanced Audio Coding 3
Format settings, Endianness : Big
Codec ID : A_EAC3
Duration : 21 min 40 s
Bit rate mode : Constant
Bit rate : 640 kb/s
Channel(s) : 6 channels
Channel positions : Front: L C R, Side: L R, LFE
Sampling rate : 48.0 kHz
Frame rate : 187.500 FPS (256 SPF)
Compression mode : Lossy
Delay relative to video : 16 ms
Stream size : 99.2 MiB (35%)
Language : English
Service kind : Complete Main
Default : Yes
Forced : No

Text
ID : 3
Format : UTF-8
Codec ID : S_TEXT/UTF8
Codec ID/Info : UTF-8 Plain Text
Duration : 21 min 39 s
Bit rate : 122 b/s
Count of elements : 591
Stream size : 19.4 KiB (0%)
Title : SDH
Language : English
Default : No
Forced : No





Duncanville S01E11


Duncanville S01E11


Duncanville S01E11


Duncanville S01E11


Duncanville S01E11

All episodes