Index
# A B C D E F G H I J K L M N O P Q R S T U V W Y Z
Tags
Language
Tags

Featured TV Shows


Duncanville S02E02

Posted By: Tavaz
720p (HD) / WEBRip IMDb
Duncanville S02E02

Duncanville S02E02
WEBRip | MKV | 1280x720 | English | H264 @ 1675 kbps | AAC @ 64 kbps | 21 min 39 s | 270 MiB
Subtitles: English
Genre: Comedy, Animation


The series centers on the life of Duncan, a spectacularly average 15-year-old boy, his family and friends. Poehler will provide the voice of Duncan and his high-strung mom, Annie, who is constantly trying to prevent her son from ruining his life.

60d6689c765f4df7b75091d34ee70c01.mkv (269.8 MB)



General
Unique ID : 65943563193056390422009518634378151739 (0x319C44AF4379ACB2ECD431B3BB73473B)
Complete name : ./60d6689c765f4df7b75091d34ee70c01.mkv
Format : Matroska
Format version : Version 4 / Version 2
File size : 270 MiB
Duration : 21 min 39 s
Overall bit rate : 1 742 kb/s
Writing application : mkvmerge v55.0.0 ('Waiting For Space') 64-bit
Writing library : libebml v1.4.2 + libmatroska v1.6.4

Video
ID : 1
Format : AVC
Format/Info : Advanced Video Codec
Format profile : High@L3.1
Format settings : CABAC / 5 Ref Frames
Format settings, CABAC : Yes
Format settings, RefFrames : 5 frames
Codec ID : V_MPEG4/ISO/AVC
Duration : 21 min 39 s
Bit rate : 1 676 kb/s
Width : 1 280 pixels
Height : 720 pixels
Display aspect ratio : 16:9
Frame rate mode : Constant
Frame rate : 23.976 (24000/1001) FPS
Color space : YUV
Chroma subsampling : 4:2:0
Bit depth : 8 bits
Scan type : Progressive
Bits/(Pixel*Frame) : 0.076
Stream size : 260 MiB (96%)
Language : English
Default : Yes
Forced : No

Audio
ID : 2
Format : AAC
Format/Info : Advanced Audio Codec
Format profile : HE-AAC / LC
Format settings : Explicit
Codec ID : A_AAC-2
Duration : 21 min 39 s
Bit rate : 64.0 kb/s
Channel(s) : 2 channels
Channel positions : Front: L R
Sampling rate : 48.0 kHz / 24.0 kHz
Frame rate : 23.438 FPS (1024 SPF)
Compression mode : Lossy
Stream size : 9.91 MiB (4%)
Language : English
Default : Yes
Forced : No

Text
ID : 3
Format : UTF-8
Codec ID : S_TEXT/UTF8
Codec ID/Info : UTF-8 Plain Text
Duration : 21 min 29 s
Bit rate : 115 b/s
Count of elements : 570
Stream size : 18.2 KiB (0%)
Title : English
Language : English
Default : No
Forced : No





Duncanville S02E02


Duncanville S02E02


Duncanville S02E02


Duncanville S02E02


Duncanville S02E02

All episodes