Index
# A B C D E F G H I J K L M N O P Q R S T U V W Y Z
Tags
Language
Tags

Featured TV Shows


Duncanville S02E03

Posted By: Tavaz
1080p (FullHD) / WEBRip IMDb
Duncanville S02E03

Duncanville S02E03
WEBRip | MKV | 1920x1080 | English | H264 @ 3150 kbps | E-AC-3 @ 256 kbps | 21 min 39 s | 528 MiB
Subtitles: English
Genre: Comedy, Animation


The series centers on the life of Duncan, a spectacularly average 15-year-old boy, his family and friends. Poehler will provide the voice of Duncan and his high-strung mom, Annie, who is constantly trying to prevent her son from ruining his life.

b9539310b6174c18a135ad7b8f669c9b.mkv (527.9 MB)



General
Unique ID : 36247527986537329818770430252034769523 (0x1B45051BD4ECF65D64A9FEBF7AE74273)
Complete name : ./b9539310b6174c18a135ad7b8f669c9b.mkv
Format : Matroska
Format version : Version 4 / Version 2
File size : 528 MiB
Duration : 21 min 39 s
Overall bit rate : 3 408 kb/s
Writing application : mkvmerge v55.0.0 ('Waiting For Space') 64-bit
Writing library : libebml v1.4.2 + libmatroska v1.6.4

Video
ID : 1
Format : AVC
Format/Info : Advanced Video Codec
Format profile : High@L4
Format settings : CABAC / 4 Ref Frames
Format settings, CABAC : Yes
Format settings, RefFrames : 4 frames
Codec ID : V_MPEG4/ISO/AVC
Duration : 21 min 39 s
Bit rate : 3 150 kb/s
Width : 1 920 pixels
Height : 1 080 pixels
Display aspect ratio : 16:9
Frame rate mode : Constant
Frame rate : 23.976 (24000/1001) FPS
Color space : YUV
Chroma subsampling : 4:2:0
Bit depth : 8 bits
Scan type : Progressive
Bits/(Pixel*Frame) : 0.063
Stream size : 488 MiB (92%)
Language : English
Default : Yes
Forced : No

Audio
ID : 2
Format : E-AC-3
Format/Info : Enhanced Audio Coding 3
Format settings, Endianness : Big
Codec ID : A_EAC3
Duration : 21 min 39 s
Bit rate mode : Constant
Bit rate : 256 kb/s
Channel(s) : 6 channels
Channel positions : Front: L C R, Side: L R, LFE
Sampling rate : 48.0 kHz
Frame rate : 187.500 FPS (256 SPF)
Compression mode : Lossy
Stream size : 39.7 MiB (8%)
Language : English
Service kind : Complete Main
Default : Yes
Forced : No

Text
ID : 3
Format : UTF-8
Codec ID : S_TEXT/UTF8
Codec ID/Info : UTF-8 Plain Text
Duration : 21 min 30 s
Bit rate : 105 b/s
Count of elements : 502
Stream size : 16.6 KiB (0%)
Title : English
Language : English
Default : No
Forced : No





Duncanville S02E03


Duncanville S02E03


Duncanville S02E03


Duncanville S02E03


Duncanville S02E03

All episodes