Featured TV Shows


Dynasty S01E04

Posted By: Tavaz
1080p (FullHD) / WEB-DL IMDb
Dynasty S01E04

Dynasty S01E04
WEB-DL | MKV | 1920x1080 | English | H264 @ 8967 kbps | E-AC-3 @ 640 kbps | 41 min 54 s | 2.81 GiB
Subtitles: English
Genre: Drama

The reboot follows two of America’s wealthiest families, the Carringtons and the Colbys, as they feud for control over their fortune and their children focusing on Fallon Carrington, the daughter of billionaire Blake Carrington, and her soon-to-be stepmother, Cristal, a Hispanic woman marrying into this WASP family and America’s most powerful class.

58667cb3cf374b4c98b48bd5c62b8f8d.mkv (2.8 GB)



General
Unique ID : 143729861622617830240213734397019540477 (0x6C215D4BF356EBC978A5C939EC21CBFD)
Complete name : ./58667cb3cf374b4c98b48bd5c62b8f8d.mkv
Format : Matroska
Format version : Version 4 / Version 2
File size : 2.81 GiB
Duration : 41 min 54 s
Overall bit rate mode : Variable
Overall bit rate : 9 610 kb/s
Encoded date : UTC 2017-11-03 13:11:30
Writing application : mkvmerge v17.0.0 ('Be Ur Friend') 64-bit
Writing library : libebml v1.3.5 + libmatroska v1.4.8

Video
ID : 1
Format : AVC
Format/Info : Advanced Video Codec
Format profile : High@L4
Format settings : CABAC / 4 Ref Frames
Format settings, CABAC : Yes
Format settings, RefFrames : 4 frames
Codec ID : V_MPEG4/ISO/AVC
Duration : 41 min 54 s
Bit rate mode : Variable
Bit rate : 8 968 kb/s
Maximum bit rate : 15.0 Mb/s
Width : 1 920 pixels
Height : 1 080 pixels
Display aspect ratio : 16:9
Frame rate mode : Constant
Frame rate : 23.976 (24000/1001) FPS
Color space : YUV
Chroma subsampling : 4:2:0
Bit depth : 8 bits
Scan type : Progressive
Bits/(Pixel*Frame) : 0.180
Stream size : 2.62 GiB (93%)
Default : Yes
Forced : No
Color range : Limited
Color primaries : BT.709
Transfer characteristics : BT.709
Matrix coefficients : BT.709

Audio
ID : 2
Format : E-AC-3
Format/Info : Enhanced Audio Coding 3
Format settings, Endianness : Big
Codec ID : A_EAC3
Duration : 41 min 54 s
Bit rate mode : Constant
Bit rate : 640 kb/s
Channel(s) : 6 channels
Channel positions : Front: L C R, Side: L R, LFE
Sampling rate : 48.0 kHz
Frame rate : 187.500 FPS (256 SPF)
Compression mode : Lossy
Stream size : 192 MiB (7%)
Language : English
Service kind : Complete Main
Default : Yes
Forced : No

Text
ID : 3
Format : UTF-8
Codec ID : S_TEXT/UTF8
Codec ID/Info : UTF-8 Plain Text
Duration : 41 min 22 s
Bit rate : 109 b/s
Count of elements : 1051
Stream size : 33.3 KiB (0%)
Language : English
Default : No
Forced : No





Dynasty S01E04


Dynasty S01E04


Dynasty S01E04


Dynasty S01E04


Dynasty S01E04

All episodes