Featured TV Shows


Dynasty S02E14

Posted By: Tavaz
Dynasty S02E14

Dynasty S02E14

The reboot follows two of America’s wealthiest families, the Carringtons and the Colbys, as they feud for control over their fortune and their children focusing on Fallon Carrington, the daughter of billionaire Blake Carrington, and her soon-to-be stepmother, Cristal, a Hispanic woman marrying into this WASP family and America’s most powerful class.

33e75b89e1b14d1db467e8355a61f8d3.avi (326.3 MB)



General
Complete name : ./33e75b89e1b14d1db467e8355a61f8d3.avi
Format : AVI
Format/Info : Audio Video Interleave
File size : 326 MiB
Duration : 42 min 33 s
Overall bit rate : 1 072 kb/s
Writing application : Lavf57.81.100

Video
ID : 0
Format : xvid
Codec ID : xvid
Duration : 42 min 33 s
Bit rate : 932 kb/s
Width : 640 pixels
Height : 360 pixels
Display aspect ratio : 16:9
Frame rate : 23.976 (24000/1001) FPS
Scan type : Progressive
Bits/(Pixel*Frame) : 0.169
Stream size : 284 MiB (87%)

Audio
ID : 1
Format : MPEG Audio
Format version : Version 1
Format profile : Layer 3
Format settings : Joint stereo / MS Stereo
Mode : Joint stereo
Mode extension : MS Stereo
Codec ID : 55
Codec ID/Hint : MP3
Duration : 42 min 33 s
Bit rate mode : Constant
Bit rate : 128 kb/s
Channel(s) : 2 channels
Sampling rate : 44.1 kHz
Compression mode : Lossy
Stream size : 39.0 MiB (12%)
Alignment : Aligned on interleaves
Interleave, duration : 26 ms (0.63 video frame)
Interleave, preload duration : 78 ms
Writing library : LAME3.99.5





Dynasty S02E14


Dynasty S02E14


Dynasty S02E14


Dynasty S02E14


Dynasty S02E14

All episodes