Index
# A B C D E F G H I J K L M N O P Q R S T U V W X Y Z
Tags
Language
Tags
May 2024
Su Mo Tu We Th Fr Sa
28 29 30 1 2 3 4
5 6 7 8 9 10 11
12 13 14 15 16 17 18
19 20 21 22 23 24 25
26 27 28 29 30 31 1

Featured TV Shows


Eater's Guide to the World S01E02

Posted By: Tavaz
1080p (FullHD) / WEBRip IMDb
Eater's Guide to the World S01E02

Eater's Guide to the World S01E02
WEBRip | MKV | 1920x1080 | English | H264 @ 5879 kbps | E-AC-3 @ 256 kbps | 31 min 15 s | 1.34 GiB
Subtitles: Español, English


Explore some of the most satisfying culinary destinations around the world in a quest to find the most unexpected places to score an epic meal, while drinking and dining with the locals along the way.

8fa8cf74be296697e6243b73a69f0891.mkv (1.3 GB)



General
Unique ID : 32969626571611740413494566464308061518 (0x18CDB81764AE608F4142820C04BB254E)
Complete name : ./8fa8cf74be296697e6243b73a69f0891.mkv
Format : Matroska
Format version : Version 4 / Version 2
File size : 1.34 GiB
Duration : 31 min 15 s
Overall bit rate : 6 137 kb/s
Writing application : mkvmerge v51.0.0 ('I Wish') 64-bit
Writing library : libebml v1.4.0 + libmatroska v1.6.2

Video
ID : 1
Format : AVC
Format/Info : Advanced Video Codec
Format profile : High@L4
Format settings : CABAC / 4 Ref Frames
Format settings, CABAC : Yes
Format settings, RefFrames : 4 frames
Codec ID : V_MPEG4/ISO/AVC
Duration : 31 min 14 s
Bit rate : 5 879 kb/s
Width : 1 920 pixels
Height : 1 080 pixels
Display aspect ratio : 16:9
Frame rate mode : Constant
Frame rate : 23.976 (24000/1001) FPS
Color space : YUV
Chroma subsampling : 4:2:0
Bit depth : 8 bits
Scan type : Progressive
Bits/(Pixel*Frame) : 0.118
Stream size : 1.28 GiB (96%)
Language : English
Default : Yes
Forced : No

Audio
ID : 2
Format : E-AC-3
Format/Info : Enhanced Audio Coding 3
Format settings, Endianness : Big
Codec ID : A_EAC3
Duration : 31 min 15 s
Bit rate mode : Constant
Bit rate : 256 kb/s
Channel(s) : 6 channels
Channel positions : Front: L C R, Side: L R, LFE
Sampling rate : 48.0 kHz
Frame rate : 187.500 FPS (256 SPF)
Compression mode : Lossy
Stream size : 57.2 MiB (4%)
Language : English
Service kind : Complete Main
Default : Yes
Forced : No

Text #1
ID : 3
Format : UTF-8
Codec ID : S_TEXT/UTF8
Codec ID/Info : UTF-8 Plain Text
Duration : 31 min 0 s
Bit rate : 96 b/s
Count of elements : 500
Stream size : 21.8 KiB (0%)
Title : English
Language : English
Default : No
Forced : No

Text #2
ID : 4
Format : UTF-8
Codec ID : S_TEXT/UTF8
Codec ID/Info : UTF-8 Plain Text
Duration : 31 min 2 s
Bit rate : 114 b/s
Count of elements : 632
Stream size : 26.0 KiB (0%)
Title : Spanish; Castilian
Language : Spanish
Default : No
Forced : No





Eater's Guide to the World S01E02


Eater's Guide to the World S01E02


Eater's Guide to the World S01E02


Eater's Guide to the World S01E02


Eater's Guide to the World S01E02

All episodes