Index
# A B C D E F G H I J K L M N O P Q R S T U V W X Y Z
Tags
Language
Tags
May 2024
Su Mo Tu We Th Fr Sa
28 29 30 1 2 3 4
5 6 7 8 9 10 11
12 13 14 15 16 17 18
19 20 21 22 23 24 25
26 27 28 29 30 31 1

Featured TV Shows


Eater's Guide to the World S01E03

Posted By: Tavaz
720p (HD) / WEBRip IMDb
Eater's Guide to the World S01E03

Eater's Guide to the World S01E03
WEBRip | MKV | 1280x720 | English | H264 @ 3037 kbps | E-AC-3 @ 256 kbps | 27 min 41 s | 653 MiB
Subtitles: Español, English


Explore some of the most satisfying culinary destinations around the world in a quest to find the most unexpected places to score an epic meal, while drinking and dining with the locals along the way.

36246c60f6fdd3658d7051941e08e315.mkv (652.6 MB)



General
Unique ID : 279818699519486855881451654904441697804 (0xD2831F099C80BA6859FE9F7671D3760C)
Complete name : ./36246c60f6fdd3658d7051941e08e315.mkv
Format : Matroska
Format version : Version 4 / Version 2
File size : 653 MiB
Duration : 27 min 41 s
Overall bit rate : 3 295 kb/s
Writing application : mkvmerge v51.0.0 ('I Wish') 64-bit
Writing library : libebml v1.4.0 + libmatroska v1.6.2

Video
ID : 1
Format : AVC
Format/Info : Advanced Video Codec
Format profile : High@L3.1
Format settings : CABAC / 5 Ref Frames
Format settings, CABAC : Yes
Format settings, RefFrames : 5 frames
Codec ID : V_MPEG4/ISO/AVC
Duration : 27 min 41 s
Bit rate : 3 037 kb/s
Width : 1 280 pixels
Height : 720 pixels
Display aspect ratio : 16:9
Frame rate mode : Constant
Frame rate : 23.976 (24000/1001) FPS
Color space : YUV
Chroma subsampling : 4:2:0
Bit depth : 8 bits
Scan type : Progressive
Bits/(Pixel*Frame) : 0.137
Stream size : 601 MiB (92%)
Language : English
Default : Yes
Forced : No

Audio
ID : 2
Format : E-AC-3
Format/Info : Enhanced Audio Coding 3
Format settings, Endianness : Big
Codec ID : A_EAC3
Duration : 27 min 41 s
Bit rate mode : Constant
Bit rate : 256 kb/s
Channel(s) : 6 channels
Channel positions : Front: L C R, Side: L R, LFE
Sampling rate : 48.0 kHz
Frame rate : 187.500 FPS (256 SPF)
Compression mode : Lossy
Stream size : 50.7 MiB (8%)
Language : English
Service kind : Complete Main
Default : Yes
Forced : No

Text #1
ID : 3
Format : UTF-8
Codec ID : S_TEXT/UTF8
Codec ID/Info : UTF-8 Plain Text
Duration : 27 min 25 s
Bit rate : 120 b/s
Count of elements : 542
Stream size : 24.2 KiB (0%)
Title : English
Language : English
Default : No
Forced : No

Text #2
ID : 4
Format : UTF-8
Codec ID : S_TEXT/UTF8
Codec ID/Info : UTF-8 Plain Text
Duration : 27 min 25 s
Bit rate : 124 b/s
Count of elements : 557
Stream size : 24.9 KiB (0%)
Title : Spanish; Castilian
Language : Spanish
Default : No
Forced : No





Eater's Guide to the World S01E03


Eater's Guide to the World S01E03


Eater's Guide to the World S01E03


Eater's Guide to the World S01E03


Eater's Guide to the World S01E03

All episodes