Index
# A B C D E F G H I J K L M N O P Q R S T U V W X Y Z
Tags
Language
Tags
May 2024
Su Mo Tu We Th Fr Sa
28 29 30 1 2 3 4
5 6 7 8 9 10 11
12 13 14 15 16 17 18
19 20 21 22 23 24 25
26 27 28 29 30 31 1

Featured TV Shows


Eater's Guide to the World S01E05

Posted By: Tavaz
720p (HD) / WEBRip IMDb
Eater's Guide to the World S01E05

Eater's Guide to the World S01E05
WEBRip | MKV | 1280x720 | English | H264 @ 2992 kbps | E-AC-3 @ 256 kbps | 25 min 33 s | 594 MiB
Subtitles: Español, English


Explore some of the most satisfying culinary destinations around the world in a quest to find the most unexpected places to score an epic meal, while drinking and dining with the locals along the way.

27de9224ce2a4b579e1837ab4b6e41a8.mkv (594.2 MB)



General
Unique ID : 45846271475647501110259073959536142565 (0x227DABB37A027FFEB66B893D7BCCA8E5)
Complete name : ./27de9224ce2a4b579e1837ab4b6e41a8.mkv
Format : Matroska
Format version : Version 4 / Version 2
File size : 594 MiB
Duration : 25 min 33 s
Overall bit rate : 3 251 kb/s
Writing application : mkvmerge v51.0.0 ('I Wish') 64-bit
Writing library : libebml v1.4.0 + libmatroska v1.6.2

Video
ID : 1
Format : AVC
Format/Info : Advanced Video Codec
Format profile : High@L3.1
Format settings : CABAC / 5 Ref Frames
Format settings, CABAC : Yes
Format settings, RefFrames : 5 frames
Codec ID : V_MPEG4/ISO/AVC
Duration : 25 min 33 s
Bit rate : 2 993 kb/s
Width : 1 280 pixels
Height : 720 pixels
Display aspect ratio : 16:9
Frame rate mode : Constant
Frame rate : 23.976 (24000/1001) FPS
Color space : YUV
Chroma subsampling : 4:2:0
Bit depth : 8 bits
Scan type : Progressive
Bits/(Pixel*Frame) : 0.135
Stream size : 547 MiB (92%)
Language : English
Default : Yes
Forced : No

Audio
ID : 2
Format : E-AC-3
Format/Info : Enhanced Audio Coding 3
Format settings, Endianness : Big
Codec ID : A_EAC3
Duration : 25 min 33 s
Bit rate mode : Constant
Bit rate : 256 kb/s
Channel(s) : 6 channels
Channel positions : Front: L C R, Side: L R, LFE
Sampling rate : 48.0 kHz
Frame rate : 187.500 FPS (256 SPF)
Compression mode : Lossy
Stream size : 46.8 MiB (8%)
Language : English
Service kind : Complete Main
Default : Yes
Forced : No

Text #1
ID : 3
Format : UTF-8
Codec ID : S_TEXT/UTF8
Codec ID/Info : UTF-8 Plain Text
Duration : 25 min 13 s
Bit rate : 129 b/s
Count of elements : 487
Stream size : 23.9 KiB (0%)
Title : English
Language : English
Default : No
Forced : No

Text #2
ID : 4
Format : UTF-8
Codec ID : S_TEXT/UTF8
Codec ID/Info : UTF-8 Plain Text
Duration : 25 min 22 s
Bit rate : 133 b/s
Count of elements : 490
Stream size : 24.7 KiB (0%)
Title : Spanish; Castilian
Language : Spanish
Default : No
Forced : No





Eater's Guide to the World S01E05


Eater's Guide to the World S01E05


Eater's Guide to the World S01E05


Eater's Guide to the World S01E05


Eater's Guide to the World S01E05

All episodes