Index
# A B C D E F G H I J K L M N O P Q R S T U V W Y Z
Tags
Language
Tags

Featured TV Shows


EDENS ZERO S01E10

Posted By: MegoNecia
1080p (FullHD) / WEB-DL IMDb
EDENS ZERO S01E10

EDENS ZERO S01E10
WEB-DL | MKV | 1920x1080 | ภาษาไทย / Français / Deutsch / Español / Italiano / 日本語 / English / Português | H264 @ 2478 kbps | E-AC-3 @ 128 kbps | 24 min 25 s | 636 MiB
Subtitles: ภาษาไทย, Hrvatski, Français, tiếng Việt, Español, Magyar, 日本語, עברית, 한국어, Русский, Ελληνικά, Nederlands, Dansk, Bahasa Indonesia, Bokmål, 中文, Suomi, Polski, Türkçe, English, Română, العربية, Deutsch, Українська, Svenska, Italiano, Português, Čeština
Genre: Animation, Comedy


Aboard the Edens Zero, a lonely boy with the ability to control gravity embarks on an adventure to meet the fabled space goddess known as Mother.

Edens.Zero.S01E10.the.Great.Naked.Escape.1080p.NF.WEB-DL.DDP2.0.x264-KRP.mkv (635.8 MB)



General
Unique ID : 123823702798285283097979944512366598401 (0x5D2793E46FB5AADFB6712EC003F85901)
Complete name : ./Edens.Zero.S01E10.the.Great.Naked.Escape.1080p.NF.WEB-DL.DDP2.0.x264-KRP.mkv
Format : Matroska
Format version : Version 4 / Version 2
File size : 636 MiB
Duration : 24 min 25 s
Overall bit rate mode : Variable
Overall bit rate : 3 639 kb/s
Encoded date : UTC 2021-08-26 08:36:02
Writing application : mkvmerge v44.0.0 ('Domino') 64-bit
Writing library : libebml v1.3.10 + libmatroska v1.5.2

Video
ID : 1
Format : AVC
Format/Info : Advanced Video Codec
Format profile : Main@L4
Format settings : CABAC / 3 Ref Frames
Format settings, CABAC : Yes
Format settings, RefFrames : 3 frames
Codec ID : V_MPEG4/ISO/AVC
Duration : 24 min 25 s
Bit rate mode : Variable
Bit rate : 2 478 kb/s
Nominal bit rate : 3 830 kb/s
Maximum bit rate : 5 745 kb/s
Width : 1 920 pixels
Height : 1 080 pixels
Display aspect ratio : 16:9
Frame rate mode : Constant
Frame rate : 23.976 (24000/1001) FPS
Color space : YUV
Chroma subsampling : 4:2:0
Bit depth : 8 bits
Scan type : Progressive
Bits/(Pixel*Frame) : 0.050
Stream size : 433 MiB (68%)
Writing library : x264 core 148 r2722 1b0121b
Encoding settings : cabac=1 / ref=3 / deblock=1:0:0 / analyse=0x1:0x111 / me=umh / subme=10 / psy=1 / psy_rd=1.00:0.00 / mixed_ref=1 / me_range=24 / chroma_me=1 / trellis=2 / 8x8dct=0 / cqm=0 / deadzone=21,11 / fast_pskip=1 / chroma_qp_offset=-2 / threads=8 / lookahead_threads=1 / sliced_threads=0 / nr=0 / decimate=1 / interlaced=0 / bluray_compat=0 / stitchable=1 / constrained_intra=0 / bframes=2 / b_pyramid=0 / b_adapt=2 / b_bias=0 / direct=3 / weightb=1 / open_gop=0 / weightp=2 / keyint=250 / keyint_min=23 / scenecut=0 / intra_refresh=0 / rc_lookahead=48 / rc=2pass / mbtree=1 / bitrate=3830 / ratetol=1.0 / qcomp=0.50 / qpmin=6 / qpmax=51 / qpstep=4 / cplxblur=20.0 / qblur=0.5 / vbv_maxrate=5745 / vbv_bufsize=7660 / nal_hrd=vbr / filler=0 / ip_ratio=1.40 / aq=1:1.00
Default : Yes
Forced : No

Audio #1
ID : 2
Format : E-AC-3
Format/Info : Enhanced Audio Coding 3
Format settings, Endianness : Big
Codec ID : A_EAC3
Duration : 24 min 25 s
Bit rate mode : Constant
Bit rate : 128 kb/s
Channel(s) : 2 channels
Channel positions : Front: L R
Sampling rate : 48.0 kHz
Frame rate : 187.500 FPS (256 SPF)
Compression mode : Lossy
Stream size : 22.4 MiB (4%)
Title : English
Language : English
Service kind : Complete Main
Default : No
Forced : No

Audio #2
ID : 3
Format : E-AC-3
Format/Info : Enhanced Audio Coding 3
Format settings, Endianness : Big
Codec ID : A_EAC3
Duration : 24 min 25 s
Bit rate mode : Constant
Bit rate : 128 kb/s
Channel(s) : 2 channels
Channel positions : Front: L R
Sampling rate : 48.0 kHz
Frame rate : 187.500 FPS (256 SPF)
Compression mode : Lossy
Stream size : 22.4 MiB (4%)
Title : French
Language : French
Service kind : Complete Main
Default : No
Forced : No

Audio #3
ID : 4
Format : E-AC-3
Format/Info : Enhanced Audio Coding 3
Format settings, Endianness : Big
Codec ID : A_EAC3
Duration : 24 min 25 s
Bit rate mode : Constant
Bit rate : 128 kb/s
Channel(s) : 2 channels
Channel positions : Front: L R
Sampling rate : 48.0 kHz
Frame rate : 187.500 FPS (256 SPF)
Compression mode : Lossy
Stream size : 22.4 MiB (4%)
Title : German
Language : German
Service kind : Complete Main
Default : No
Forced : No

Audio #4
ID : 5
Format : E-AC-3
Format/Info : Enhanced Audio Coding 3
Format settings, Endianness : Big
Codec ID : A_EAC3
Duration : 24 min 25 s
Bit rate mode : Constant
Bit rate : 128 kb/s
Channel(s) : 2 channels
Channel positions : Front: L R
Sampling rate : 48.0 kHz
Frame rate : 187.500 FPS (256 SPF)
Compression mode : Lossy
Stream size : 22.4 MiB (4%)
Title : Italian
Language : Italian
Service kind : Complete Main
Default : No
Forced : No

Audio #5
ID : 6
Format : E-AC-3
Format/Info : Enhanced Audio Coding 3
Format settings, Endianness : Big
Codec ID : A_EAC3
Duration : 24 min 25 s
Bit rate mode : Constant
Bit rate : 128 kb/s
Channel(s) : 2 channels
Channel positions : Front: L R
Sampling rate : 48.0 kHz
Frame rate : 187.500 FPS (256 SPF)
Compression mode : Lossy
Stream size : 22.4 MiB (4%)
Title : Japanese
Language : Japanese
Service kind : Complete Main
Default : No
Forced : No

Audio #6
ID : 7
Format : E-AC-3
Format/Info : Enhanced Audio Coding 3
Format settings, Endianness : Big
Codec ID : A_EAC3
Duration : 24 min 25 s
Bit rate mode : Constant
Bit rate : 128 kb/s
Channel(s) : 2 channels
Channel positions : Front: L R
Sampling rate : 48.0 kHz
Frame rate : 187.500 FPS (256 SPF)
Compression mode : Lossy
Stream size : 22.4 MiB (4%)
Title : Brazilian Portuguese
Language : Portuguese
Service kind : Complete Main
Default : No
Forced : No

Audio #7
ID : 8
Format : E-AC-3
Format/Info : Enhanced Audio Coding 3
Format settings, Endianness : Big
Codec ID : A_EAC3
Duration : 24 min 25 s
Bit rate mode : Constant
Bit rate : 128 kb/s
Channel(s) : 2 channels
Channel positions : Front: L R
Sampling rate : 48.0 kHz
Frame rate : 187.500 FPS (256 SPF)
Compression mode : Lossy
Stream size : 22.4 MiB (4%)
Title : Spanish
Language : Spanish
Service kind : Complete Main
Default : No
Forced : No

Audio #8
ID : 9
Format : E-AC-3
Format/Info : Enhanced Audio Coding 3
Format settings, Endianness : Big
Codec ID : A_EAC3
Duration : 24 min 25 s
Bit rate mode : Constant
Bit rate : 128 kb/s
Channel(s) : 2 channels
Channel positions : Front: L R
Sampling rate : 48.0 kHz
Frame rate : 187.500 FPS (256 SPF)
Compression mode : Lossy
Stream size : 22.4 MiB (4%)
Title : European Spanish
Language : Spanish
Service kind : Complete Main
Default : No
Forced : No

Audio #9
ID : 10
Format : E-AC-3
Format/Info : Enhanced Audio Coding 3
Format settings, Endianness : Big
Codec ID : A_EAC3
Duration : 24 min 25 s
Bit rate mode : Constant
Bit rate : 128 kb/s
Channel(s) : 2 channels
Channel positions : Front: L R
Sampling rate : 48.0 kHz
Frame rate : 187.500 FPS (256 SPF)
Compression mode : Lossy
Stream size : 22.4 MiB (4%)
Title : Thai
Language : Thai
Service kind : Complete Main
Default : No
Forced : No

Text #1
ID : 11
Format : UTF-8
Codec ID : S_TEXT/UTF8
Codec ID/Info : UTF-8 Plain Text
Duration : 23 min 19 s
Bit rate : 59 b/s
Count of elements : 340
Stream size : 10.2 KiB (0%)
Title : English
Language : English
Default : Yes
Forced : No

Text #2
ID : 12
Format : UTF-8
Codec ID : S_TEXT/UTF8
Codec ID/Info : UTF-8 Plain Text
Duration : 21 min 6 s
Bit rate : 0 b/s
Count of elements : 3
Stream size : 75.0 Bytes (0%)
Title : English (Forced)
Language : English
Default : No
Forced : Yes

Text #3
ID : 13
Format : UTF-8
Codec ID : S_TEXT/UTF8
Codec ID/Info : UTF-8 Plain Text
Duration : 23 min 23 s
Bit rate : 96 b/s
Count of elements : 346
Stream size : 16.5 KiB (0%)
Title : Arabic
Language : Arabic
Default : No
Forced : No

Text #4
ID : 14
Format : UTF-8
Codec ID : S_TEXT/UTF8
Codec ID/Info : UTF-8 Plain Text
Duration : 23 min 24 s
Bit rate : 58 b/s
Count of elements : 346
Stream size : 9.99 KiB (0%)
Title : Chinese Simplified
Language : Chinese
Default : No
Forced : No

Text #5
ID : 15
Format : UTF-8
Codec ID : S_TEXT/UTF8
Codec ID/Info : UTF-8 Plain Text
Duration : 23 min 23 s
Bit rate : 58 b/s
Count of elements : 346
Stream size : 10.1 KiB (0%)
Title : Chinese Traditional
Language : Chinese
Default : No
Forced : No

Text #6
ID : 16
Format : UTF-8
Codec ID : S_TEXT/UTF8
Codec ID/Info : UTF-8 Plain Text
Duration : 23 min 23 s
Bit rate : 54 b/s
Count of elements : 344
Stream size : 9.41 KiB (0%)
Title : Croatian
Language : Croatian
Default : No
Forced : No

Text #7
ID : 17
Format : UTF-8
Codec ID : S_TEXT/UTF8
Codec ID/Info : UTF-8 Plain Text
Duration : 23 min 23 s
Bit rate : 55 b/s
Count of elements : 344
Stream size : 9.50 KiB (0%)
Title : Czech
Language : Czech
Default : No
Forced : No

Text #8
ID : 18
Format : UTF-8
Codec ID : S_TEXT/UTF8
Codec ID/Info : UTF-8 Plain Text
Duration : 23 min 23 s
Bit rate : 58 b/s
Count of elements : 344
Stream size : 9.98 KiB (0%)
Title : Danish
Language : Danish
Default : No
Forced : No

Text #9
ID : 19
Format : UTF-8
Codec ID : S_TEXT/UTF8
Codec ID/Info : UTF-8 Plain Text
Duration : 23 min 23 s
Bit rate : 58 b/s
Count of elements : 344
Stream size : 9.95 KiB (0%)
Title : Dutch
Language : Dutch
Default : No
Forced : No

Text #10
ID : 20
Format : UTF-8
Codec ID : S_TEXT/UTF8
Codec ID/Info : UTF-8 Plain Text
Duration : 23 min 23 s
Bit rate : 57 b/s
Count of elements : 344
Stream size : 9.83 KiB (0%)
Title : Finnish
Language : Finnish
Default : No
Forced : No

Text #11
ID : 21
Format : UTF-8
Codec ID : S_TEXT/UTF8
Codec ID/Info : UTF-8 Plain Text
Duration : 23 min 24 s
Bit rate : 61 b/s
Count of elements : 344
Stream size : 10.6 KiB (0%)
Title : French
Language : French
Default : No
Forced : No

Text #12
ID : 22
Format : UTF-8
Codec ID : S_TEXT/UTF8
Codec ID/Info : UTF-8 Plain Text
Duration : 23 min 24 s
Bit rate : 0 b/s
Count of elements : 7
Stream size : 175 Bytes (0%)
Title : French (Forced)
Language : French
Default : No
Forced : Yes

Text #13
ID : 23
Format : UTF-8
Codec ID : S_TEXT/UTF8
Codec ID/Info : UTF-8 Plain Text
Duration : 23 min 23 s
Bit rate : 64 b/s
Count of elements : 344
Stream size : 11.0 KiB (0%)
Title : German
Language : German
Default : No
Forced : No

Text #14
ID : 24
Format : UTF-8
Codec ID : S_TEXT/UTF8
Codec ID/Info : UTF-8 Plain Text
Duration : 23 min 23 s
Bit rate : 0 b/s
Count of elements : 7
Stream size : 155 Bytes (0%)
Title : German (Forced)
Language : German
Default : No
Forced : Yes

Text #15
ID : 25
Format : UTF-8
Codec ID : S_TEXT/UTF8
Codec ID/Info : UTF-8 Plain Text
Duration : 23 min 23 s
Bit rate : 98 b/s
Count of elements : 346
Stream size : 16.9 KiB (0%)
Title : Greek
Language : Greek
Default : No
Forced : No

Text #16
ID : 26
Format : UTF-8
Codec ID : S_TEXT/UTF8
Codec ID/Info : UTF-8 Plain Text
Duration : 23 min 23 s
Bit rate : 87 b/s
Count of elements : 346
Stream size : 15.0 KiB (0%)
Title : Hebrew
Language : Hebrew
Default : No
Forced : No

Text #17
ID : 27
Format : UTF-8
Codec ID : S_TEXT/UTF8
Codec ID/Info : UTF-8 Plain Text
Duration : 23 min 24 s
Bit rate : 56 b/s
Count of elements : 346
Stream size : 9.72 KiB (0%)
Title : Hungarian
Language : Hungarian
Default : No
Forced : No

Text #18
ID : 28
Format : UTF-8
Codec ID : S_TEXT/UTF8
Codec ID/Info : UTF-8 Plain Text
Duration : 23 min 23 s
Bit rate : 59 b/s
Count of elements : 344
Stream size : 10.3 KiB (0%)
Title : Indonesian
Language : Indonesian
Default : No
Forced : No

Text #19
ID : 29
Format : UTF-8
Codec ID : S_TEXT/UTF8
Codec ID/Info : UTF-8 Plain Text
Duration : 23 min 23 s
Bit rate : 58 b/s
Count of elements : 344
Stream size : 10.0 KiB (0%)
Title : Italian
Language : Italian
Default : No
Forced : No

Text #20
ID : 30
Format : UTF-8
Codec ID : S_TEXT/UTF8
Codec ID/Info : UTF-8 Plain Text
Duration : 23 min 23 s
Bit rate : 0 b/s
Count of elements : 7
Stream size : 162 Bytes (0%)
Title : Italian (Forced)
Language : Italian
Default : No
Forced : Yes

Text #21
ID : 31
Format : UTF-8
Codec ID : S_TEXT/UTF8
Codec ID/Info : UTF-8 Plain Text
Duration : 23 min 15 s
Bit rate : 96 b/s
Count of elements : 373
Stream size : 16.4 KiB (0%)
Title : Japanese
Language : Japanese
Default : No
Forced : No

Text #22
ID : 32
Format : UTF-8
Codec ID : S_TEXT/UTF8
Codec ID/Info : UTF-8 Plain Text
Duration : 2 s 2 ms
Bit rate : 187 b/s
Count of elements : 1
Stream size : 47.0 Bytes (0%)
Title : Japanese (Forced)
Language : Japanese
Default : No
Forced : Yes

Text #23
ID : 33
Format : UTF-8
Codec ID : S_TEXT/UTF8
Codec ID/Info : UTF-8 Plain Text
Duration : 23 min 24 s
Bit rate : 69 b/s
Count of elements : 344
Stream size : 11.9 KiB (0%)
Title : Korean
Language : Korean
Default : No
Forced : No

Text #24
ID : 34
Format : UTF-8
Codec ID : S_TEXT/UTF8
Codec ID/Info : UTF-8 Plain Text
Duration : 23 min 23 s
Bit rate : 60 b/s
Count of elements : 344
Stream size : 10.3 KiB (0%)
Title : Malay
Language : Malay
Default : No
Forced : No

Text #25
ID : 35
Format : UTF-8
Codec ID : S_TEXT/UTF8
Codec ID/Info : UTF-8 Plain Text
Duration : 23 min 23 s
Bit rate : 57 b/s
Count of elements : 344
Stream size : 9.87 KiB (0%)
Title : Norwegian Bokmal
Language : Norwegian Bokmal
Default : No
Forced : No

Text #26
ID : 36
Format : UTF-8
Codec ID : S_TEXT/UTF8
Codec ID/Info : UTF-8 Plain Text
Duration : 23 min 23 s
Bit rate : 61 b/s
Count of elements : 346
Stream size : 10.6 KiB (0%)
Title : Polish
Language : Polish
Default : No
Forced : No

Text #27
ID : 37
Format : UTF-8
Codec ID : S_TEXT/UTF8
Codec ID/Info : UTF-8 Plain Text
Duration : 23 min 23 s
Bit rate : 60 b/s
Count of elements : 343
Stream size : 10.3 KiB (0%)
Title : Portuguese
Language : Portuguese
Default : No
Forced : No

Text #28
ID : 38
Format : UTF-8
Codec ID : S_TEXT/UTF8
Codec ID/Info : UTF-8 Plain Text
Duration : 23 min 23 s
Bit rate : 60 b/s
Count of elements : 344
Stream size : 10.3 KiB (0%)
Title : Brazilian Portuguese
Language : Portuguese
Default : No
Forced : No

Text #29
ID : 39
Format : UTF-8
Codec ID : S_TEXT/UTF8
Codec ID/Info : UTF-8 Plain Text
Duration : 23 min 25 s
Bit rate : 0 b/s
Count of elements : 7
Stream size : 167 Bytes (0%)
Title : Brazilian Portuguese (Forced)
Language : Portuguese
Default : No
Forced : Yes

Text #30
ID : 40
Format : UTF-8
Codec ID : S_TEXT/UTF8
Codec ID/Info : UTF-8 Plain Text
Duration : 23 min 23 s
Bit rate : 65 b/s
Count of elements : 346
Stream size : 11.2 KiB (0%)
Title : Romanian
Language : Romanian
Default : No
Forced : No

Text #31
ID : 41
Format : UTF-8
Codec ID : S_TEXT/UTF8
Codec ID/Info : UTF-8 Plain Text
Duration : 23 min 23 s
Bit rate : 98 b/s
Count of elements : 346
Stream size : 16.9 KiB (0%)
Title : Russian
Language : Russian
Default : No
Forced : No

Text #32
ID : 42
Format : UTF-8
Codec ID : S_TEXT/UTF8
Codec ID/Info : UTF-8 Plain Text
Duration : 23 min 24 s
Bit rate : 60 b/s
Count of elements : 341
Stream size : 10.4 KiB (0%)
Title : Spanish
Language : Spanish
Default : No
Forced : No

Text #33
ID : 43
Format : UTF-8
Codec ID : S_TEXT/UTF8
Codec ID/Info : UTF-8 Plain Text
Duration : 23 min 24 s
Bit rate : 0 b/s
Count of elements : 7
Stream size : 171 Bytes (0%)
Title : Spanish (Forced)
Language : Spanish
Default : No
Forced : Yes

Text #34
ID : 44
Format : UTF-8
Codec ID : S_TEXT/UTF8
Codec ID/Info : UTF-8 Plain Text
Duration : 23 min 23 s
Bit rate : 58 b/s
Count of elements : 344
Stream size : 10.0 KiB (0%)
Title : European Spanish
Language : Spanish
Default : No
Forced : No

Text #35
ID : 45
Format : UTF-8
Codec ID : S_TEXT/UTF8
Codec ID/Info : UTF-8 Plain Text
Duration : 23 min 23 s
Bit rate : 0 b/s
Count of elements : 7
Stream size : 149 Bytes (0%)
Title : European Spanish (Forced)
Language : Spanish
Default : No
Forced : Yes

Text #36
ID : 46
Format : UTF-8
Codec ID : S_TEXT/UTF8
Codec ID/Info : UTF-8 Plain Text
Duration : 23 min 23 s
Bit rate : 59 b/s
Count of elements : 344
Stream size : 10.3 KiB (0%)
Title : Swedish
Language : Swedish
Default : No
Forced : No

Text #37
ID : 47
Format : UTF-8
Codec ID : S_TEXT/UTF8
Codec ID/Info : UTF-8 Plain Text
Duration : 23 min 23 s
Bit rate : 156 b/s
Count of elements : 345
Stream size : 26.7 KiB (0%)
Title : Thai
Language : Thai
Default : No
Forced : No

Text #38
ID : 48
Format : UTF-8
Codec ID : S_TEXT/UTF8
Codec ID/Info : UTF-8 Plain Text
Duration : 23 min 23 s
Bit rate : 2 b/s
Count of elements : 9
Stream size : 470 Bytes (0%)
Title : Thai (Forced)
Language : Thai
Default : No
Forced : Yes

Text #39
ID : 49
Format : UTF-8
Codec ID : S_TEXT/UTF8
Codec ID/Info : UTF-8 Plain Text
Duration : 23 min 23 s
Bit rate : 60 b/s
Count of elements : 344
Stream size : 10.3 KiB (0%)
Title : Turkish
Language : Turkish
Default : No
Forced : No

Text #40
ID : 50
Format : UTF-8
Codec ID : S_TEXT/UTF8
Codec ID/Info : UTF-8 Plain Text
Duration : 23 min 25 s
Bit rate : 94 b/s
Count of elements : 344
Stream size : 16.3 KiB (0%)
Title : Ukrainian
Language : Ukrainian
Default : No
Forced : No

Text #41
ID : 51
Format : UTF-8
Codec ID : S_TEXT/UTF8
Codec ID/Info : UTF-8 Plain Text
Duration : 23 min 23 s
Bit rate : 86 b/s
Count of elements : 344
Stream size : 14.8 KiB (0%)
Title : Vietnamese
Language : Vietnamese
Default : No
Forced : No





EDENS ZERO S01E10


EDENS ZERO S01E10


EDENS ZERO S01E10


EDENS ZERO S01E10


EDENS ZERO S01E10

All episodes