Index
# A B C D E F G H I J K L M N O P Q R S T U V W X Y Z
Tags
Language
Tags
May 2024
Su Mo Tu We Th Fr Sa
28 29 30 1 2 3 4
5 6 7 8 9 10 11
12 13 14 15 16 17 18
19 20 21 22 23 24 25
26 27 28 29 30 31 1

Featured TV Shows


Catherine the Great S01E10

Posted By: Tavaz
1080p (FullHD) / WEB-DL IMDb
Catherine the Great S01E10

Catherine the Great S01E10
WEB-DL | MKV | 1920x1080 | Русский | H264 @ 9435 kbps | E-AC-3 @ 224.0 kbps | 36 min 49 s | 2.49 GiB
Subtitles: English
Genre: Drama


This four-part historical drama follows the end of Catherine the Great's reign and her affair with Russian military leader Grigory Potemkin that helped shape the future of Russian politics.

9137f4d24c1e45caafafe1429987f435.mkv (2.5 GB)



General
Unique ID : 313529190939896800165950435255429705762 (0xEBDF86960C87028564A43926D5593022)
Complete name : ./9137f4d24c1e45caafafe1429987f435.mkv
Format : Matroska
Format version : Version 4
File size : 2.49 GiB
Duration : 36 min 49 s
Overall bit rate mode : Variable
Overall bit rate : 9 661 kb/s
Encoded date : UTC 2018-03-28 09:29:46
Writing application : mkvmerge v19.0.0 ('Brave Captain') 64-bit
Writing library : libebml v1.3.5 + libmatroska v1.4.8

Video
ID : 1
Format : AVC
Format/Info : Advanced Video Codec
Format profile : High@L4
Format settings : CABAC / 4 Ref Frames
Format settings, CABAC : Yes
Format settings, Reference frames : 4 frames
Codec ID : V_MPEG4/ISO/AVC
Duration : 36 min 49 s
Bit rate mode : Variable
Bit rate : 9 435 kb/s
Maximum bit rate : 15.0 Mb/s
Width : 1 920 pixels
Height : 1 080 pixels
Display aspect ratio : 16:9
Frame rate mode : Constant
Frame rate : 25.000 FPS
Color space : YUV
Chroma subsampling : 4:2:0
Bit depth : 8 bits
Scan type : Progressive
Bits/(Pixel*Frame) : 0.182
Stream size : 2.43 GiB (98%)
Default : Yes
Forced : No
Color range : Limited
Color primaries : BT.709
Transfer characteristics : BT.709
Matrix coefficients : BT.709

Audio
ID : 2
Format : E-AC-3
Format/Info : Enhanced AC-3
Commercial name : Dolby Digital Plus
Codec ID : A_EAC3
Duration : 36 min 49 s
Bit rate mode : Constant
Bit rate : 224 kb/s
Channel(s) : 2 channels
Channel layout : L R
Sampling rate : 48.0 kHz
Frame rate : 31.250 FPS (1536 SPF)
Compression mode : Lossy
Stream size : 59.0 MiB (2%)
Language : Russian
Service kind : Complete Main
Default : Yes
Forced : No

Text #1
ID : 3
Format : UTF-8
Codec ID : S_TEXT/UTF8
Codec ID/Info : UTF-8 Plain Text
Duration : 36 min 2 s
Bit rate : 41 b/s
Frame rate : 0.154 FPS
Count of elements : 332
Stream size : 11.1 KiB (0%)
Language : English
Default : No
Forced : No

Text #2
ID : 4
Format : UTF-8
Codec ID : S_TEXT/UTF8
Codec ID/Info : UTF-8 Plain Text
Duration : 36 min 2 s
Bit rate : 42 b/s
Frame rate : 0.154 FPS
Count of elements : 332
Stream size : 11.3 KiB (0%)
Title : SDH
Language : English
Default : No
Forced : No





Catherine the Great S01E10


Catherine the Great S01E10


Catherine the Great S01E10


Catherine the Great S01E10


Catherine the Great S01E10

All episodes