Index
# A B C D E F G H I J K L M N O P Q R S T U V W X Y Z
Tags
Language
Tags
May 2024
Su Mo Tu We Th Fr Sa
28 29 30 1 2 3 4
5 6 7 8 9 10 11
12 13 14 15 16 17 18
19 20 21 22 23 24 25
26 27 28 29 30 31 1

Featured TV Shows


Catherine the Great S03E04

Posted By: Tavaz
1080p (FullHD) / WEB-DL IMDb
Catherine the Great S03E04

Catherine the Great S03E04
WEB-DL | BRAW | 1920x1080 | Русский | H264 @ 10000 kbps | AAC @ 192.0 kbps | 47 min 55 s | 3.31 GiB
Subtitles: English
Genre: Drama


This four-part historical drama follows the end of Catherine the Great's reign and her affair with Russian military leader Grigory Potemkin that helped shape the future of Russian politics.

f875caea6ef24fd5b4a4dc0db3ce3d7e.mp4 (3.3 GB)



General
Complete name : ./f875caea6ef24fd5b4a4dc0db3ce3d7e.mp4
Format : MPEG-4
Format profile : Base Media
Codec ID : isom (isom/iso2/avc1/mp41)
File size : 3.31 GiB
Duration : 47 min 55 s
Overall bit rate mode : Variable
Overall bit rate : 9 897 kb/s
Writing application : Lavf58.20.100

Video
ID : 1
Format : AVC
Format/Info : Advanced Video Codec
Format profile : High@L4
Format settings : CABAC / 4 Ref Frames
Format settings, CABAC : Yes
Format settings, Reference frames : 4 frames
Codec ID : avc1
Codec ID/Info : Advanced Video Coding
Duration : 47 min 55 s
Bit rate mode : Constant
Bit rate : 10 000 kb/s
Width : 1 920 pixels
Height : 1 080 pixels
Display aspect ratio : 16:9
Frame rate mode : Constant
Frame rate : 25.000 FPS
Color space : YUV
Chroma subsampling : 4:2:0
Bit depth : 8 bits
Scan type : Progressive
Bits/(Pixel*Frame) : 0.193
Stream size : 3.25 GiB (98%)
Color range : Limited
Color primaries : BT.709
Transfer characteristics : BT.709
Matrix coefficients : BT.709
Codec configuration box : avcC

Audio
ID : 2
Format : AAC LC
Format/Info : Advanced Audio Codec Low Complexity
Codec ID : mp4a-40-2
Duration : 47 min 55 s
Duration_LastFrame : -11 ms
Bit rate mode : Constant
Bit rate : 192 kb/s
Channel(s) : 2 channels
Channel layout : L R
Sampling rate : 48.0 kHz
Frame rate : 46.875 FPS (1024 SPF)
Compression mode : Lossy
Stream size : 66.3 MiB (2%)
Language : Russian
Default : Yes
Alternate group : 1

Text
ID : 3
Format : Timed Text
Muxing mode : sbtl
Codec ID : tx3g
Duration : 47 min 39 s
Bit rate mode : Variable
Bit rate : 71 b/s
Frame rate : 0.424 FPS
Stream size : 24.7 KiB (0%)
Title : SDH
Language : English
Default : Yes
Forced : No
Alternate group : 3





Catherine the Great S03E04


Catherine the Great S03E04


Catherine the Great S03E04


Catherine the Great S03E04


Catherine the Great S03E04

All episodes