Featured TV Shows


Elementary S05E09

Posted By: Tavaz
SD / WEB-DL IMDb
Elementary S05E09

Elementary S05E09
WEB-DL | MKV | 1024x576 | English | H264 @ 1328 kbps | AC-3 @ 448 kbps | 42 min 48 s | 555 MiB
Genre: Dramma, Mistero, Crime

Dopo essere stato per anni consulente per Scotland Yard e dopo essere uscito da una clinica per disintossicarsi dall'alcool e dalle droghe, Sherlock Holmes si stabilisce a New York City dove accetta di collaborare con il New York City Police Department e risolvere diversi casi con l'aiuto della logica e del suo intuito, affiancato, sul malgrado, dell'ex chirurgo Joan Watson.

a279440c6da54ff6aa532a1815d060e7.mkv (555.1 MB)



General
Unique ID : 90924388813676403390596139381395051917 (0x4467667AA8DA81317C084D7544E4558D)
Complete name : ./a279440c6da54ff6aa532a1815d060e7.mkv
Format : Matroska
Format version : Version 4 / Version 2
File size : 555 MiB
Duration : 42 min 48 s
Overall bit rate : 1 813 kb/s
Writing application : Lavf56.40.101
Writing library : Lavf56.40.101

Video
ID : 1
Format : AVC
Format/Info : Advanced Video Codec
Format profile : High@L4.1
Format settings : CABAC / 14 Ref Frames
Format settings, CABAC : Yes
Format settings, RefFrames : 14 frames
Codec ID : V_MPEG4/ISO/AVC
Duration : 42 min 48 s
Bit rate : 1 329 kb/s
Width : 1 024 pixels
Height : 576 pixels
Display aspect ratio : 16:9
Frame rate mode : Variable
Color space : YUV
Chroma subsampling : 4:2:0
Bit depth : 8 bits
Scan type : Progressive
Stream size : 407 MiB (73%)
Writing library : x264 core 148 r2643 5c65704
Encoding settings : cabac=1 / ref=14 / deblock=1:-3:-3 / analyse=0x3:0x133 / me=umh / subme=10 / psy=1 / psy_rd=1.00:0.15 / mixed_ref=1 / me_range=24 / chroma_me=1 / trellis=2 / 8x8dct=1 / cqm=0 / deadzone=21,11 / fast_pskip=0 / chroma_qp_offset=-3 / threads=12 / lookahead_threads=2 / sliced_threads=0 / nr=0 / decimate=1 / interlaced=0 / bluray_compat=0 / constrained_intra=0 / bframes=8 / b_pyramid=2 / b_adapt=2 / b_bias=0 / direct=3 / weightb=1 / open_gop=0 / weightp=2 / keyint=250 / keyint_min=23 / scenecut=40 / intra_refresh=0 / rc_lookahead=60 / rc=crf / mbtree=1 / crf=18.0 / qcomp=0.60 / qpmin=0 / qpmax=69 / qpstep=4 / ip_ratio=1.40 / aq=1:1.00
Default : Yes
Forced : No

Audio
ID : 2
Format : AC-3
Format/Info : Audio Coding 3
Format settings, Endianness : Big
Codec ID : A_AC3
Duration : 42 min 48 s
Bit rate mode : Constant
Bit rate : 448 kb/s
Channel(s) : 6 channels
Channel positions : Front: L C R, Side: L R, LFE
Sampling rate : 48.0 kHz
Frame rate : 31.250 FPS (1536 SPF)
Bit depth : 16 bits
Compression mode : Lossy
Stream size : 137 MiB (25%)
Writing library : Lavc56.60.100 ac3
Language : English
Service kind : Complete Main
Default : Yes
Forced : No

Text
ID : 3
Format : UTF-8
Codec ID : S_TEXT/UTF8
Codec ID/Info : UTF-8 Plain Text
Duration : 42 min 12 s
Default : No
Forced : No





Elementary S05E09


Elementary S05E09


Elementary S05E09


Elementary S05E09


Elementary S05E09

All episodes